Майло / Bad Milo (Джейкоб Вон / Jacob Vaughan) [2013, США, ужасы, комедия, DVDScreener] VO (zelesk) + Original Eng

Ответить на тему
 
Автор Сообщение

user ®

Стаж: 7 лет 7 месяцев

Сообщений: 20008

Пост Пост: #1 от 20-Авг-2013 23:10

[Цитировать]

Майло / Bad Milo
Страна: США
Жанр: ужасы, комедия
Год выпуска: 2013
Продолжительность: 01:25:00
Перевод: Одноголосый закадровый zelesk
Cубтитры: нет
Оригинальная аудиодорожка: английский
Режиссер: Джейкоб Вон / Jacob Vaughan
В ролях: Патрик Варбертон, Петер Стормаре, Джиллиан Джейкобс, Стивен Рут, Кен Марино, Кумэйл Нанджиани, Тоби Хасс, Мэри Кэй Плэйс, Джонатан Даниэль Браун, Тиша Френч
Описание: Молодой мужчина обнаруживает, что в стрессовых ситуациях превращается в страшного гнома, который живет внутри него и выходит, чтобы отомстить всем его беспокоящим. Только за счет управления своим стрессом и борьбы с этим демоном он может защитить себя и своих близких от страданий и ужасной смерти.
Сэмпл: http://multi-up.com/895317
Качество видео: DVDScreener
Формат видео: MKV
Видео: MPEG-4 XviD/H.263, 640x352, 16:9, 23.976 fps, 1 011 Kbps
Аудио: AC-3, 48.0 KHz, 192 Kbps, 2 channels (L, R)
Аудио 2: AC-3, 44.1 KHz, 128 Kbps, 2 channels (L, R)

MediaInfo

Bad.Milo.2013.SCREENER.AC3-2.0.XviD-AXED.mkv
General
Unique ID : 227504639199569009056099385057212735045 (0xAB27CCB9EF6B0B708EF0778939A59E45)
Complete name : Bad.Milo.2013.SCREENER.AC3-2.0.XviD-AXED.mkv
Format : Matroska
Format version : Version 4 / Version 2
File size : 813 MiB
Duration : 1h 23mn
Overall bit rate : 1 358 Kbps
Encoded date : UTC 2013-08-19 15:02:15
Writing application : mkvmerge v6.0.0 ('Coming Up For Air') built on Jan 20 2013 09:52:00
Writing library : libebml v1.3.0 + libmatroska v1.4.0
Video #1
ID : 1
Format : MPEG-4 Visual
Format profile : Advanced Simple@L5
Format settings, BVOP : Yes
Format settings, QPel : No
Format settings, GMC : No warppoints
Format settings, Matrix : Default (H.263)
Codec ID : V_MS/VFW/FOURCC / XVID
Codec ID/Hint : XviD
Duration : 1h 23mn
Bit rate : 1 011 Kbps
Width : 640 pixels
Height : 352 pixels
Display aspect ratio : 16:9
Frame rate mode : Constant
Frame rate : 23.976 fps
Color space : YUV
Chroma subsampling : 4:2:0
Bit depth : 8 bits
Scan type : Progressive
Compression mode : Lossy
Bits/(Pixel*Frame) : 0.187
Stream size : 605 MiB (74%)
Writing library : XviD 64
Default : Yes
Forced : No
Audio #2
ID : 2
Format : AC-3
Format/Info : Audio Coding 3
Mode extension : CM (complete main)
Format settings, Endianness : Big
Codec ID : A_AC3
Duration : 1h 23mn
Bit rate mode : Constant
Bit rate : 192 Kbps
Channel(s) : 2 channels
Channel positions : Front: L R
Sampling rate : 48.0 KHz
Bit depth : 16 bits
Compression mode : Lossy
Stream size : 115 MiB (14%)
Language : Russian
Default : Yes
Forced : No
Audio #3
ID : 3
Format : AC-3
Format/Info : Audio Coding 3
Mode extension : CM (complete main)
Format settings, Endianness : Big
Codec ID : A_AC3
Duration : 1h 23mn
Bit rate mode : Constant
Bit rate : 128 Kbps
Channel(s) : 2 channels
Channel positions : Front: L R
Sampling rate : 44.1 KHz
Bit depth : 16 bits
Compression mode : Lossy
Stream size : 76.6 MiB (9%)
Language : English
Default : No
Forced : No

Скриншот c названием фильма

Скриншоты




Скачать

Скачать торрент!

Как скачивать? · Что такое торрент? · Рейтинг и ограничения

Сайт не распространяет и не хранит электронные версии произведений, а лишь предоставляет доступ к создаваемому пользователями каталогу ссылок на торрент-файлы, которые содержат только списки хеш-сумм

[Профиль] [ЛС]
Показать сообщения:    
Ответить на тему

Текущее время: Сегодня 02:23

Часовой пояс: GMT + 4



Вы не можете начинать темы
Вы не можете отвечать на сообщения
Вы не можете редактировать свои сообщения
Вы не можете удалять свои сообщения
Вы не можете голосовать в опросах
Вы не можете прикреплять файлы к сообщениям
Вы не можете скачивать файлы