Майло / Bad Milo (Джейкоб Вон / Jacob Vaughan) [2013, США, ужасы, комедия, DVDScreener] VO (zelesk)

Ответить на тему
 
Автор Сообщение

user ®

Стаж: 7 лет 7 месяцев

Сообщений: 20008

Пост Пост: #1 от 20-Авг-2013 20:00

[Цитировать]

Майло / Bad Milo
Страна: США
Жанр: ужасы, комедия
Год выпуска: 2013
Продолжительность: 01:23:40
Перевод: Одноголосый закадровый zelesk
Cубтитры: нет
Оригинальная аудиодорожка: нет
Режиссер: Джейкоб Вон / Jacob Vaughan
В ролях: Патрик Варбертон, Петер Стормаре, Джиллиан Джейкобс, Стивен Рут, Кен Марино, Кумэйл Нанджиани, Тоби Хасс, Мэри Кэй Плэйс, Джонатан Даниэль Браун, Тиша Френч
Описание: Молодой мужчина обнаруживает, что в стрессовых ситуациях превращается в страшного гнома, который живет внутри него и выходит, чтобы отомстить всем его беспокоящим. Только за счет управления своим стрессом и борьбы с этим демоном он может защитить себя и своих близких от страданий и ужасной смерти.
Доп. информация: Внимание в фильме присутствует надпись МАGNOLIA
Сэмпл: http://multi-up.com/895544
Качество видео: DVDScreener
Формат видео: AVI
Видео: 640x352 (1.82:1), 23.976 fps, XviD build 50 ~1041 kbps avg, 0.19 bit/pixel
Аудио: 48 kHz, AC3 Dolby Digital, 2/0 (L,R) ch, ~192.00 kbps avg

MediaInfo

Общее
Полное имя : S:\Фильмы\Майло. 2013. DVDScr..avi
Формат : AVI
Формат/Информация : Audio Video Interleave
Размер файла : 744 Мбайт
Продолжительность : 1 ч. 23 м.
Общий поток : 1243 Кбит/сек
Программа кодирования : VirtualDubMod 1.5.10.3 | www.virtualdub-fr.org || (build 2550/release)
Библиотека кодирования : VirtualDubMod build 2550/release
Видео
Идентификатор : 0
Формат : MPEG-4 Visual
Профиль формата : Advanced Simple@L5
Параметр BVOP формата : 2
Параметр QPel формата : Нет
Параметр GMC формата : Без точки перехода
Параметр матрицы формата : Default (H.263)
Идентификатор кодека : XVID
Идентификатор кодека/Подсказка : XviD
Продолжительность : 1 ч. 23 м.
Битрейт : 1042 Кбит/сек
Ширина : 640 пикс.
Высота : 352 пикс.
Соотношение сторон : 16:9
Частота кадров : 23,976 кадр/сек
Цветовое пространство : YUV
Подвыборка цветности : 4:2:0
Битовая глубина : 8 бит
Тип развёртки : Прогрессивная
Метод сжатия : С потерями
Бит/(Пиксели*Кадры) : 0.193
Размер потока : 623 Мбайт (84%)
Библиотека кодирования : XviD 1.2.1 (UTC 2008-12-04)
Аудио
Идентификатор : 1
Формат : AC-3
Формат/Информация : Audio Coding 3
Расширение режима : CM (complete main)
Идентификатор кодека : 2000
Продолжительность : 1 ч. 23 м.
Вид битрейта : Постоянный
Битрейт : 192 Кбит/сек
Каналы : 2 канала
Расположение каналов : Front: L R
Частота : 48,0 КГц
Битовая глубина : 16 бит
Метод сжатия : С потерями
Размер потока : 115 Мбайт (15%)
Выравнивание : Разделение по промежуткам
Продолжительность промежутка : 42 мс. (1,00 видеокадр)
Время предзагрузки промежутка : 500 ms

Скриншот c названием фильма

Скриншоты

Скачать

Скачать торрент!

Как скачивать? · Что такое торрент? · Рейтинг и ограничения

Сайт не распространяет и не хранит электронные версии произведений, а лишь предоставляет доступ к создаваемому пользователями каталогу ссылок на торрент-файлы, которые содержат только списки хеш-сумм

[Профиль] [ЛС]
Показать сообщения:    
Ответить на тему

Текущее время: Сегодня 06:04

Часовой пояс: GMT + 4



Вы не можете начинать темы
Вы не можете отвечать на сообщения
Вы не можете редактировать свои сообщения
Вы не можете удалять свои сообщения
Вы не можете голосовать в опросах
Вы не можете прикреплять файлы к сообщениям
Вы не можете скачивать файлы