Кулак обезьяны, плывущая змея / Monkey Fist, Floating Snake / Monkey Kung-Fu / Drunken Monkey / Zui bu mi hou (Ло Чи / Law Chi) [1979, Гонконг, боевые искусства, VHSRip] DVO (2x2)

Ответить на тему
 
Автор Сообщение

user ®

Стаж: 13 лет

Сообщений: 15071

Пост Пост: #1 от 20-Авг-2013 10:30

[Цитировать]

Кулак обезьяны, плывущая змея / Monkey Fist, Floating Snake / Monkey Kung-Fu / Drunken Monkey / Zui bu mi hou
Страна: Гонконг
Жанр: боевые искусства
Год выпуска: 1979
Продолжительность: 01:32:36
Перевод: Профессиональный (двухголосый закадровый) 2x2
Cубтитры: нет
Режиссер: Ло Чи / Law Chi
В ролях: Чэнь Мучуань, Чжан И, Юэ Хуа, Чан Синг, Эдди Ко, Сунь Жунчжи, Чжэн Фусюн, Чжан Бинъюй, У Янь
Описание: Бестолковый и бесхарактерный паренёк, который находится на подхвате в местной школе кунг-фу, постоянно подвергается издевательствам со стороны старшего ученика этой школы. Этот здоровяк всё время пинает и дубасит нашего героя и показывает на нём приёмы. Однажды на рынке парень встречает старика-цирюльника, который помимо парикмахерского искусства ещё и отлично владеет кунг-фу. В конце концов парнишка добивается того, что старый мастер берёт его в ученики, и им обоим предстоит противостоять негодяям, грязно вымогающим у старика деньжата....
Благодарность: За исходник благодарность выражается Mozgotryas.
Качество видео: VHSRip
Формат видео: AVI
Видео: 592x288 (2.06:1), 25 fps, XviD build 50 ~1976 kbps avg, 0.46 bit/pixel
Аудио: 48 kHz, MPEG Layer 3, 2 ch, ~128.00 kbps avg

MediaInfo

Format : AVI
Format/Info : Audio Video Interleave
File size : 1,37 Гбайт
Duration : 1 ч. 32 м.
Overall bit rate : 2114 Кбит/сек
Writing application : VirtualDubMod 1.5.10.3 | www.virtualdub-fr.org || (build 2550/release)
Writing library : VirtualDubMod build 2550/release
Видео
ID : 0
Format : MPEG-4 Visual
Format profile : Advanced Simple@L5
Format settings, BVOP : 2
Format settings, QPel : Нет
Format settings, GMC : Без точки перехода
Format settings, Matrix : Default (MPEG)
Codec ID : XVID
Codec ID/Hint : XviD
Duration : 1 ч. 32 м.
Bit rate : 1977 Кбит/сек
Width : 592 пикселя
Height : 288 пикселей
Display aspect ratio : 2,056
Frame rate : 25,000 кадров/сек
Color space : YUV
Chroma subsampling : 4:2:0
Bit depth : 8 бит
Scan type : Прогрессивная
Compression mode : С потерями
Bits/(Pixel*Frame) : 0.464
Stream size : 1,28 Гбайт (93%)
Writing library : XviD 1.2.1 (UTC 2008-12-04)
Аудио
ID : 1
Format : MPEG Audio
Format version : Version 1
Format profile : Layer 3
Codec ID : 55
Codec ID/Hint : MP3
Duration : 1 ч. 32 м.
Bit rate mode : Постоянный
Bit rate : 128 Кбит/сек
Channel(s) : 2 канала
Sampling rate : 48,0 КГц
Compression mode : С потерями
Stream size : 84,8 Мбайт (6%)
Alignment : Соединение по промежуткам
Interleave, duration : 40 мс. (1,00 видеокадр)
Interleave, preload duration : 504 мс.
Writing library : LAME3.99r
Encoding settings : -m s -V 4 -q 2 -lowpass 17 -b 128

Скриншот c названием фильма

Скриншоты

Скачать

Скачать торрент! Кулак обезьяны, плывущая змея / Monkey Fist, Floating Snake / Monkey Kung-Fu / Drunken Monkey / Zui bu mi hou (Ло Чи / Law Chi) [1979, Гонконг, боевые искусства, VHSRip] DVO (2x2)

Как скачивать? · Что такое торрент? · Рейтинг и ограничения

Сайт не распространяет и не хранит электронные версии произведений, а лишь предоставляет доступ к создаваемому пользователями каталогу ссылок на торрент-файлы, которые содержат только списки хеш-сумм

[Профиль] [ЛС]
Показать сообщения:    
Ответить на тему

Текущее время: Сегодня 21:10

Часовой пояс: GMT + 4



Вы не можете начинать темы
Вы не можете отвечать на сообщения
Вы не можете редактировать свои сообщения
Вы не можете удалять свои сообщения
Вы не можете голосовать в опросах
Вы не можете прикреплять файлы к сообщениям
Вы не можете скачивать файлы