Сломленные / Broken (Руфус Норрис / Rufus Norris) [2012, Великобритания, Драма, BDRip 720p] MVO + Subs (Eng, Rus) + Original Eng

Ответить на тему
 
Автор Сообщение

user ®

Стаж: 7 лет 7 месяцев

Сообщений: 20008

Пост Пост: #1 от 20-Авг-2013 07:20

[Цитировать]

Сломленные / Broken
Страна: Великобритания
Жанр: Драма
Год выпуска: 2012
Продолжительность: 01:31:03
Перевод: Профессиональный (многоголосый закадровый)
Cубтитры: английские, русские
Оригинальная аудиодорожка: английский
Режиссер: Руфус Норрис / Rufus Norris
В ролях: Тим Рот, Киллиан Мёрфи, Элуиз Лоуренс, Лили Джеймс, Рори Киннер, Билл Милнер, Дэнис Лосон, Лино Фасиоль, Роберт Эммс, Зана Марьянович
Описание: Девчонке по кличке Сканк (Вонючка) — 11 лет. У неё диабет. Она — классная. Только начались летние каникулы, и дни её полны лёгких надежд. Но противный дядька из дома напротив избивает Рика, доброго, но очень ранимого соседского паренька, поскольку его дочь обвиняет Рика в изнасиловании. Мир вокруг стремительно рушится; Сканк ищет утешения в тихой дружбе с Риком, но запутывается окончательно.- -Качество: BDRip 720p [Broken.2012.LIMITED.720p.BluRay.x264-GECKOS-[PublicHD]
Формат: MKV
Видео: MPEG 4-AVC, 4383 kbps, 1280x688 (1.85:1), 23.976 fps
Аудио 1: AC3 2.0 / 48 kHz / 256 kbps | Многоголосый закадровый
Аудио 2: DTS 5.1 / 48 kHz / 768 kbps | Original
Субтитры: Английские, Русские (SRT)

MI

General
Unique ID : 185372842927579195116696623938874015674 (0x8B7582CACDCB2481AC0BAA763ACE7FBA)
Complete name : C:\D\Movies\Broken.2012.720p.mkv
Format : Matroska
Format version : Version 4 / Version 2
File size : 3.44 GiB
Duration : 1h 31mn
Overall bit rate : 5 405 Kbps
Movie name : СПАМ
Encoded date : UTC 2013-08-19 18:50:34
Writing application : mkvmerge v6.1.0 ('Old Devil') built on Mar 2 2013 14:32:37
Writing library : libebml v1.3.0 libmatroska v1.4.0
Video
ID : 1
Format : AVC
Format/Info : Advanced Video Codec
Format profile : High@L4.1
Format settings, CABAC : Yes
Format settings, ReFrames : 5 frames
Codec ID : V_MPEG4/ISO/AVC
Duration : 1h 31mn
Bit rate : 4 383 Kbps
Width : 1 280 pixels
Height : 688 pixels
Display aspect ratio : 1.85:1
Frame rate mode : Constant
Frame rate : 23.976 fps
Color space : YUV
Chroma subsampling : 4:2:0
Bit depth : 8 bits
Scan type : Progressive
Bits/(Pixel*Frame) : 0.208
Stream size : 2.72 GiB (79%)
Writing library : x264 core 133 r2334 a3ac64b
Encoding settings : cabac=1 / ref=5 / deblock=1:0:0 / analyse=0x3:0x133 / me=umh / subme=7 / psy=1 / psy_rd=1.00:0.00 / mixed_ref=1 / me_range=16 / chroma_me=1 / trellis=1 / 8x8dct=1 / cqm=0 / deadzone=21,11 / fast_pskip=0 / chroma_qp_offset=-2 / threads=12 / lookahead_threads=2 / sliced_threads=0 / nr=0 / decimate=1 / interlaced=0 / bluray_compat=0 / constrained_intra=0 / bframes=3 / b_pyramid=2 / b_adapt=2 / b_bias=0 / direct=3 / weightb=1 / open_gop=0 / weightp=2 / keyint=250 / keyint_min=23 / scenecut=40 / intra_refresh=0 / rc_lookahead=50 / rc=2pass / mbtree=1 / bitrate=4383 / ratetol=1.0 / qcomp=0.60 / qpmin=0 / qpmax=69 / qpstep=4 / cplxblur=20.0 / qblur=0.5 / ip_ratio=1.40 / aq=1:1.00
Language : English
Default : Yes
Forced : No
Audio #1
ID : 2
Format : AC-3
Format/Info : Audio Coding 3
Mode extension : CM (complete main)
Format settings, Endianness : Big
Codec ID : A_AC3
Duration : 1h 31mn
Bit rate mode : Constant
Bit rate : 256 Kbps
Channel(s) : 2 channels
Channel positions : Front: L R
Sampling rate : 48.0 KHz
Bit depth : 16 bits
Compression mode : Lossy
Stream size : 167 MiB (5%)
Title : Мистерия Звука
Language : Russian
Default : No
Forced : No
Audio #2
ID : 3
Format : DTS
Format/Info : Digital Theater Systems
Mode : 16
Format settings, Endianness : Big
Codec ID : A_DTS
Duration : 1h 31mn
Bit rate mode : Constant
Bit rate : 768 Kbps
Channel(s) : 6 channels
Channel positions : Front: L C R, Side: L R, LFE
Sampling rate : 48.0 KHz
Bit depth : 24 bits
Compression mode : Lossy
Stream size : 500 MiB (14%)
Language : English
Default : Yes
Forced : No
Text #1
ID : 4
Format : UTF-8
Codec ID : S_TEXT/UTF8
Codec ID/Info : UTF-8 Plain Text
Language : English
Default : Yes
Forced : No
Text #2
ID : 5
Format : UTF-8
Codec ID : S_TEXT/UTF8
Codec ID/Info : UTF-8 Plain Text
Title : Russian
Language : Russian
Default : No
Forced : No
Menu
00:00:00.000 : en:00:00:00.000
00:09:36.326 : en:00:09:36.326
00:15:34.809 : en:00:15:34.809
00:22:49.410 : en:00:22:49.410
00:29:20.467 : en:00:29:20.467
00:38:04.407 : en:00:38:04.407
00:43:18.095 : en:00:43:18.095
00:50:27.524 : en:00:50:27.524
00:59:04.458 : en:00:59:04.458
01:05:16.037 : en:01:05:16.037
01:13:45.713 : en:01:13:45.713
01:21:43.107 : en:01:21:43.107

Скриншоты

Скачать

Скачать торрент!

Как скачивать? · Что такое торрент? · Рейтинг и ограничения

Сайт не распространяет и не хранит электронные версии произведений, а лишь предоставляет доступ к создаваемому пользователями каталогу ссылок на торрент-файлы, которые содержат только списки хеш-сумм

[Профиль] [ЛС]
Показать сообщения:    
Ответить на тему

Текущее время: Сегодня 16:30

Часовой пояс: GMT + 4



Вы не можете начинать темы
Вы не можете отвечать на сообщения
Вы не можете редактировать свои сообщения
Вы не можете удалять свои сообщения
Вы не можете голосовать в опросах
Вы не можете прикреплять файлы к сообщениям
Вы не можете скачивать файлы