Любовь в павшем городе / Love In A Fallen City (Энн Хуи / Ann Hui) [1984, Гонконг, Драма, мелодрама, военный, VHSRip] VO (Nastia)

Ответить на тему
 
Автор Сообщение

user ®

Стаж: 11 лет

Сообщений: 15151

Пост Пост: #1 от 19-Авг-2013 14:55

[Цитировать]

Любовь в павшем городе / Qing cheng zhi lian (Love In A Fallen City)
Страна: Гонконг, Golden Harvest Company Ltd., Shaw Brothers
Жанр: Драма, мелодрама, военный
Год выпуска: 1984
Продолжительность: 01:32:43
Перевод: Одноголосый закадровый (Nastia)
Перевод субтитров: larisa_k
Cубтитры: нет
Оригинальная аудиодорожка: нет
Режиссер: Энн Хуи / Ann Hui
В ролях: Чоу Юнь-Фат, Кора Миао, Гарри Барнетт, Чао Чао, Чен Гэм, Чен Гэм, Чжи-гун Чен, Вэй Йи Чин, Кинг-фай Чунг
Описание: По одноименной повести Эйлин Чанг. Действие фильма происходит в 1940-е годы в Шанхае и Гонконге. Судьба Лю-су (Кора Миао) складывается неудачно, после развода со своим горе-мужем ее семья, принявшая ее обратно, тяготится ею. Они считают что Лю-су их опозорили. Ее жизнь с родными становится невыносимой. Очаровательный Лю-юань (Чоу Юн-Фат), малайский бизнесмен из Гонконга, имеющий славу ловеласа и приехавший в Шанхай, заинтересовался Лю-су. С помощью общих знакомых он устраивает ее поездку в Гонконг, подальше от ее склочной семейки. Лю-юань пытается растопить сердце скованнной Лю-су, заставить ее снова полюбить. Но только вторжение в Гонконг японцев, тяжелое время военного положение, помогает им обоим понять что они на самом деле любят друг друга.
Доп. информация: Композитор: Мэн Йи Лам (получил награду за лучший саутрек года)
Большое спасибо:
larisa_k за перевод субтитров, за предоставленный озвучку и за VHSRip
Nastia за озвучку фильма
Сведение звука: pca1962
Сэмпл: http://sendfile.su/854587
Качество видео: VHSRip
Формат видео: AVI
Видео: DivX, 640x336, 23.97 fps, 933 kbps
Аудио: AC3, 48 kHz, 2.0 (stereo), 192 kbps

MediaInfo

=== Общие ===
Полное имя : Lubov.v.pavshem.gorode.1984.VHSRip.DivX.pca1962.avi
Формат : AVI
Описание формата : Audio Video Interleave
Размер файла : 753 Мб
Длительность : 1ч 32мин
Общий битрейт : 1 135 кбит/сек
Програмное обеспечение : VirtualDubModRus 1.5.10.2 (build 2542/release)
Кодирующая библиотека : VirtualDubMod build 2542/release
=== Видео ===
ID (Идентификатор) : 0
Формат : MPEG-4 Visual
Профиль формата : Simple@L3
Параметр 'BVOP' : Нет
Параметр 'QPel' : Нет
Параметр 'GMC' : No warppoints
Параметр 'Matrix' : Default (H.263)
Идентификатор кодека : DX50
Подпись кодека : DivX 5
Длительность : 1ч 32мин
Битрейт : 933 кбит/сек
Ширина кадра : 640 пикселей
Высота кадра : 336 пикселей
Соотношение сторон : 1.905
Частота кадров : 23.976 кадров/сек
Оригинальная частота кадров : 23.000 fps
Цветовое пространство : YUV
Субдискретизация насыщенности : 4:2:0
Глубина (разрядность) : 8 bits
Тип развертки : Прогрессивная
Режим сжатия : С потерями
Бит/(пиксель*кадр) : 0.181
Размер потока : 619 Мб (82%)
Кодирующая библиотека : XviD 1.2.1 (UTC 2008-12-04)
=== Аудио ===
ID (Идентификатор) : 1
Формат : AC-3
Описание формата : Audio Coding 3
Mode extension : CM (complete main)
Идентификатор кодека : 2000
Длительность : 1ч 32мин
Тип битрейта : Постоянный
Битрейт : 192 кбит/сек
Канал(ы) : 2 каналов
Расположение каналов : Front: L R
Частота дискретизации : 48.0 кГц
Глубина (разрядность) : 16 bits
Режим сжатия : С потерями
Размер потока : 127 Мб (17%)
Расположение потока : Split accross interleaves
Период чередования : 42 мс (1.00 video frame)
Предварительная загрузка : 500 мс

Скриншот c названием фильма

Скачать

Скачать торрент! Любовь в павшем городе / Love In A Fallen City (Энн Хуи / Ann Hui) [1984, Гонконг, Драма, мелодрама, военный, VHSRip] VO (Nastia)

Как скачивать? · Что такое торрент? · Рейтинг и ограничения

Сайт не распространяет и не хранит электронные версии произведений, а лишь предоставляет доступ к создаваемому пользователями каталогу ссылок на торрент-файлы, которые содержат только списки хеш-сумм

[Профиль] [ЛС]
Показать сообщения:    
Ответить на тему

Текущее время: Сегодня 05:31

Часовой пояс: GMT + 4



Вы не можете начинать темы
Вы не можете отвечать на сообщения
Вы не можете редактировать свои сообщения
Вы не можете удалять свои сообщения
Вы не можете голосовать в опросах
Вы не можете прикреплять файлы к сообщениям
Вы не можете скачивать файлы