Признаки жизни / Знаки жизни / Signs of Life (Джон Дэвид Коулз / John David Coles) [1989, США, Драма, HDTV 1080i] DVO (НТВ+)

Ответить на тему
 
Автор Сообщение

user ®

Стаж: 7 лет 7 месяцев

Сообщений: 20008

Пост Пост: #1 от 19-Авг-2013 08:35

[Цитировать]

Признаки жизни / Знаки жизни / Signs of Life
Страна: США
Студия: American Playhouse, Astral Films, Avenue Pictures Productions
Жанр: Драма
Год выпуска: 1989
Продолжительность: 01:26:21
Перевод: Профессиональный (двухголосый закадровый) НТВ+
Cубтитры: нет
Оригинальная аудиодорожка: нет
Режиссер: Джон Дэвид Коулз / John David Coles
В ролях: Мэри-Луиз Паркер, Кейт Рид, Артур Кеннеди, Винсент Д’Онофрио, Кэти Бейтс, Джорджия Энджел, Уилл Пэттон,Бо Бриджес, Майкл Льюис, Кевин Дж. О’Коннор
Описание: История человека, который теряет свой морской бизнес и лодку...
Фильм получил премию на Кинофестивале в Довиле, но в финансовом плане был убыточным и поэтому является очень редким.

Тип релиза: HDTV 1080i
Контейнер: TS
Видео: AVC 1920x1080 (16:9) 25.0fps Bit rate 5421Kbps
Аудио: MP2 48.0KHz 2ch 192 Kbps rus

MediaInfo

General
ID : 1
Complete name : E:\torrent\Priznaki Zhizni_HDTV 1080i.ts
Format : MPEG-TS
File size : 3.56 GiB
Duration : 1h 26mn
Overall bit rate : 5 907 Kbps
Maximum Overall bit rate : 35.5 Mbps
Video
ID : 4113 (0x1011)
Menu ID : 1 (0x1)
Format : AVC
Format/Info : Advanced Video Codec
Format profile : High@L4.0
Format settings, CABAC : Yes
Format settings, ReFrames : 3 frames
Format settings, GOP : M=1, N=2
Duration : 1h 26mn
Bit rate mode : Variable
Bit rate : 5 421 Kbps
Maximum bit rate : 40.0 Mbps
Width : 1 920 pixels
Height : 1 080 pixels
Display aspect ratio : 16:9
Frame rate : 25.000 fps
Standard : Component
Color space : YUV
Chroma subsampling : 4:2:0
Bit depth : 8 bits
Scan type : Interlaced
Scan order : Top Field First
Bits/(Pixel*Frame) : 0.105
Stream size : 3.27 GiB (92%)
Color primaries : BT.709-5, BT.1361, IEC 61966-2-4, SMPTE RP177
Transfer characteristics : BT.709-5, BT.1361
Matrix coefficients : BT.709-5, BT.1361, IEC 61966-2-4 709, SMPTE RP177
Audio
ID : 4352 (0x1100)
Menu ID : 1 (0x1)
Format : MPEG Audio
Format version : Version 1
Format profile : Layer 2
Duration : 1h 26mn
Bit rate mode : Constant
Bit rate : 192 Kbps
Channel(s) : 2 channels
Sampling rate : 48.0 KHz
Stream size : 119 MiB (3%)

Скриншот с названием фильма

Скриншоты


Скачать

Скачать торрент!

Как скачивать? · Что такое торрент? · Рейтинг и ограничения

Сайт не распространяет и не хранит электронные версии произведений, а лишь предоставляет доступ к создаваемому пользователями каталогу ссылок на торрент-файлы, которые содержат только списки хеш-сумм

[Профиль] [ЛС]
Показать сообщения:    
Ответить на тему

Текущее время: Сегодня 23:53

Часовой пояс: GMT + 4



Вы не можете начинать темы
Вы не можете отвечать на сообщения
Вы не можете редактировать свои сообщения
Вы не можете удалять свои сообщения
Вы не можете голосовать в опросах
Вы не можете прикреплять файлы к сообщениям
Вы не можете скачивать файлы