Четвертый пассажир (Игорь Ромащенко) [2013, мелодрама, HDTVRip]

Ответить на тему
 
Автор Сообщение

user ®

Стаж: 7 лет 7 месяцев

Сообщений: 20008

Пост Пост: #1 от 19-Авг-2013 05:25

[Цитировать]

Четвертый пассажир
Жанр: мелодрама
Год выпуска: 2013
Продолжительность: 01:33:29
Выпущено: Россия, КК "Русское", ЗАО "Студия Олимп"
Режиссёр: Игорь Ромащенко
В ролях: Татьяна Черкасова, Алексей Зубков, Ангелина Римашевская, Виктория Стивина, Степан Шебуняев, Сергей Юшкевич, Андрей Межулис, Илья Любимов, Наталья Лукеичева, Елена Аминова
Описание: Ульяна, школьная учительница, похожа на героиню советских фильмов — она независима, принципиальна и одинока, хоть и хороша собой. Ульяна разведена, ее сын-студент уже не нуждается в опеке, и единственное наполнение жизни женщины — монотонная работа. Вероятно, героиня так и осталась бы в своей привычной колее и не было бы счастья, да несчастье помогло. Решая проблемы сына, Ульяна отправляется в Москву и по пути знакомится с крутым бизнесменом Владимиром. Единственная проблема в том, что, боясь оттолкнуть бессребреницу, Владимир представляется простым строителем, а вскоре узнает, что больше, чем богатых мужчин, Ульяна ненавидит только лживых.
Доп. информация:
Релиз группа
Семпл: скачать
[url=http://***/forum/tracker.php?nm=Четвертый+пассажир]Раздачи этого фильма в других форматах[/url]
Качество видео: HDTVRip (исходник HDTV(1080i))
Формат видео: AVI
Видео: 720x400 (1.80:1), 25 fps, XviD build 50 ~1869 kbps avg, 0.26 bit/pixel
Аудио: 48 kHz, AC3 Dolby Digital, 2/0 (L,R) ch, ~192.00 kbps avg

MI

General
Complete name : V:\ftp4\Videos\Chetvertyy.passazhir.2013..XviD.HDTVRip.Files-x.avi
Format : AVI
Format/Info : Audio Video Interleave
File size : 1.37 GiB
Duration : 1h 34mn
Overall bit rate : 2 071 Kbps
Writing application : VirtualDubMod 1.5.10.3 | www.virtualdub-fr.org || (build 2550/release)
Writing library : VirtualDubMod build 2550/release
Video
ID : 0
Format : MPEG-4 Visual
Format profile : Advanced Simple@L5
Format settings, BVOP : 1
Format settings, QPel : No
Format settings, GMC : No warppoints
Format settings, Matrix : Default (H.263)
Codec ID : XVID
Codec ID/Hint : XviD
Duration : 1h 34mn
Bit rate : 1 870 Kbps
Width : 720 pixels
Height : 400 pixels
Display aspect ratio : 16:9
Frame rate : 25.000 fps
Color space : YUV
Chroma subsampling : 4:2:0
Bit depth : 8 bits
Scan type : Progressive
Compression mode : Lossy
Bits/(Pixel*Frame) : 0.260
Stream size : 1.23 GiB (90%)
Writing library : XviD 1.2.1 (UTC 2008-12-04)
Audio
ID : 1
Format : AC-3
Format/Info : Audio Coding 3
Mode extension : CM (complete main)
Format settings, Endianness : Big
Codec ID : 2000
Duration : 1h 34mn
Bit rate mode : Constant
Bit rate : 192 Kbps
Channel(s) : 2 channels
Channel positions : Front: L R
Sampling rate : 48.0 KHz
Bit depth : 16 bits
Compression mode : Lossy
Stream size : 130 MiB (9%)
Alignment : Split accross interleaves
Interleave, duration : 40 ms (1.00 video frame)
Interleave, preload duration : 500 ms

Скриншот c названием фильма

Скриншоты

Скачать

Скачать торрент!

Как скачивать? · Что такое торрент? · Рейтинг и ограничения

Сайт не распространяет и не хранит электронные версии произведений, а лишь предоставляет доступ к создаваемому пользователями каталогу ссылок на торрент-файлы, которые содержат только списки хеш-сумм

[Профиль] [ЛС]
Показать сообщения:    
Ответить на тему

Текущее время: Сегодня 18:29

Часовой пояс: GMT + 4



Вы не можете начинать темы
Вы не можете отвечать на сообщения
Вы не можете редактировать свои сообщения
Вы не можете удалять свои сообщения
Вы не можете голосовать в опросах
Вы не можете прикреплять файлы к сообщениям
Вы не можете скачивать файлы