Четвертый пассажир (Игорь Ромащенко) [2013, мелодрама, SATRip]

Ответить на тему
 
Автор Сообщение

user ®

Стаж: 7 лет 7 месяцев

Сообщений: 20008

Пост Пост: #1 от 18-Авг-2013 20:55

[Цитировать]

Четвертый пассажир
Жанр: мелодрама
Год выпуска: 2013
Продолжительность: 01:33:29-Режиссёр: Игорь Ромащенко
В ролях: Татьяна Черкасова, Алексей Зубков, Ангелина Римашевская, Виктория Стивина, Степан Шебуняев, Сергей Юшкевич, Андрей Межулис, Илья Любимов, Наталья Лукеичева, Елена Аминова-Описание: Ульяна, школьная учительница, похожа на героиню советских фильмов — она независима, принципиальна и одинока, хоть и хороша собой. Ульяна разведена, ее сын-студент уже не нуждается в опеке, и единственное наполнение жизни женщины — монотонная работа. Вероятно, героиня так и осталась бы в своей привычной колее и не было бы счастья, да несчастье помогло. Решая проблемы сына, Ульяна отправляется в Москву и по пути знакомится с крутым бизнесменом Владимиром. Единственная проблема в том, что, боясь оттолкнуть бессребреницу, Владимир представляется простым строителем, а вскоре узнает, что больше, чем богатых мужчин, Ульяна ненавидит только лживых.
-Качество видео: SATRip
Формат видео: AVI
Видео: XviD, 704x400 (16:9), 1945 Kbps, 25 fps
Аудио: MP3, 128 Kbps, 2 ch

MediaInfo

Общее
Полное имя : E:\4.passazhir.1400mb.avi
Формат : AVI
Формат/Информация : Audio Video Interleave
Профиль формата : OpenDML
Размер файла : 1,37 Гбайт
Продолжительность : 1 ч. 33 м.
Общий поток : 2090 Кбит/сек
Видео
Идентификатор : 0
Формат : MPEG-4 Visual
Параметр BVOP формата : Да
Параметр QPel формата : Нет
Параметр GMC формата : Без точки перехода
Параметр матрицы формата : Default (H.263)
Идентификатор кодека : DX50
Идентификатор кодека/Подсказка : DivX 5
Продолжительность : 1 ч. 33 м.
Битрейт : 1945 Кбит/сек
Ширина : 704 пикселя
Высота : 400 пикселей
Соотношение сторон : 16:9
Частота кадров : 25,000 кадров/сек
Цветовое пространство : YUV
Субдискретизация насыщенности : 4:2:0
Битовая глубина : 8 бит
Тип развёртки : Прогрессивная
Метод сжатия : С потерями
Бит/(Пиксели*Кадры) : 0.276
Размер потока : 1,27 Гбайт (93%)
Библиотека кодирования : Intel(R) MPEG-4 encoder based on Intel(R) IPP 6.1 build 137.20[6.1.137.763]
Аудио
Идентификатор : 1
Формат : MPEG Audio
Версия формата : Version 1
Профиль формата : Layer 3
Режим : Joint stereo
Расширение режима : MS Stereo
Идентификатор кодека : 55
Идентификатор кодека/Подсказка : MP3
Продолжительность : 1 ч. 33 м.
Вид битрейта : Постоянный
Битрейт : 128 Кбит/сек
Каналы : 2 канала
Частота : 48,0 КГц
Метод сжатия : С потерями
Размер потока : 85,6 Мбайт (6%)
Выравнивание : Соединение по промежуткам
Продолжительность промежутка : 24 мс. (0,60 видеокадр)
Библиотека кодирования : LAME3.98.2

Скриншоты

Скачать

Скачать торрент!

Как скачивать? · Что такое торрент? · Рейтинг и ограничения

Сайт не распространяет и не хранит электронные версии произведений, а лишь предоставляет доступ к создаваемому пользователями каталогу ссылок на торрент-файлы, которые содержат только списки хеш-сумм

[Профиль] [ЛС]
Показать сообщения:    
Ответить на тему

Текущее время: Сегодня 08:02

Часовой пояс: GMT + 4



Вы не можете начинать темы
Вы не можете отвечать на сообщения
Вы не можете редактировать свои сообщения
Вы не можете удалять свои сообщения
Вы не можете голосовать в опросах
Вы не можете прикреплять файлы к сообщениям
Вы не можете скачивать файлы