Лавлэйс / Lovelace (Роб Эпштейн / Rob Epstein, Джеффри Фридман / Jeffrey Freedman) [2013, США, драма, биография, WEB-DLRip] VO (datynet)

Ответить на тему
 
Автор Сообщение

user ®

Стаж: 7 лет 7 месяцев

Сообщений: 20008

Пост Пост: #1 от 18-Авг-2013 20:55

[Цитировать]

- -Лавлэйс / Lovelace-
Страна: США
Жанр: Драма, биография
Год выпуска: 2013
Продолжительность: 01:32:47-Перевод: Одноголосый закадровый [datynet]
Cубтитры: нет
Режиссер: Роб Эпштейн / Rob Epstein, Джеффри Фридман / Jeffrey Freedman-В ролях: Аманда Сайфред, Питер Сарсгаард, Хэнк Азария, Уэс Бентли, Адам Броди, Бобби Каннавейл, Джеймс Франко, Деби Мейзар, Крис Нот, Роберт Патрик-Описание: Биография самой известной порноактрисы Линды Лавлейс. Чтобы заработать подобную славу, ей нужно было сыграть только в одном фильме — «Глубокая глотка». Всю свою жизнь после этого она посвятила борьбе за права женщин-Сэмпл: http://multi-up.com/894760-Качество видео: WEB-DLRip [рип с WEB-DL 720p]
Формат видео: AVI-Видео: 656x352 (1.86:1), 23.976 fps, XviD build 50 ~914 kbps avg, 0.17 bit/pixel
Аудио: 44.100 kHz, MPEG Layer 3, 2 ch, ~128.00 kbps avg

MediaInfo

General
Complete name : C:\Desktop\Лавлэйс.2013.L1.WEB-DLRip.avi
Format : AVI
Format/Info : Audio Video Interleave
File size : 698 MiB
Duration : 1h 32mn
Overall bit rate : 1 052 Kbps
Writing application : VirtualDubMod 1.5.10.2 (build 2540/release)
Writing library : VirtualDubMod build 2540/release
Video
ID : 0
Format : MPEG-4 Visual
Format profile : Advanced Simple@L5
Format settings, BVOP : 2
Format settings, QPel : No
Format settings, GMC : No warppoints
Format settings, Matrix : Default (H.263)
Codec ID : XVID
Codec ID/Hint : XviD
Duration : 1h 32mn
Bit rate : 915 Kbps
Width : 656 pixels
Height : 352 pixels
Display aspect ratio : 1.85:1
Frame rate : 23.976 fps
Color space : YUV
Chroma subsampling : 4:2:0
Bit depth : 8 bits
Scan type : Progressive
Compression mode : Lossy
Bits/(Pixel*Frame) : 0.165
Stream size : 607 MiB (87%)
Writing library : XviD 1.2.1 (UTC 2008-12-04)
Audio
ID : 1
Format : MPEG Audio
Format version : Version 1
Format profile : Layer 3
Codec ID : 55
Codec ID/Hint : MP3
Duration : 1h 32mn
Bit rate mode : Constant
Bit rate : 128 Kbps
Channel(s) : 2 channels
Sampling rate : 44.1 KHz
Compression mode : Lossy
Stream size : 84.9 MiB (12%)
Alignment : Split accross interleaves
Interleave, duration : 42 ms (1.00 video frame)
Interleave, preload duration : 500 ms
Writing library : LAME3.99r
Encoding settings : -m s -V 4 -q 2 -lowpass 17 -b 128

Скриншот c названием фильма

Скриншоты

Скачать

Скачать торрент!

Как скачивать? · Что такое торрент? · Рейтинг и ограничения

Сайт не распространяет и не хранит электронные версии произведений, а лишь предоставляет доступ к создаваемому пользователями каталогу ссылок на торрент-файлы, которые содержат только списки хеш-сумм

[Профиль] [ЛС]
Показать сообщения:    
Ответить на тему

Текущее время: Сегодня 10:07

Часовой пояс: GMT + 4



Вы не можете начинать темы
Вы не можете отвечать на сообщения
Вы не можете редактировать свои сообщения
Вы не можете удалять свои сообщения
Вы не можете голосовать в опросах
Вы не можете прикреплять файлы к сообщениям
Вы не можете скачивать файлы