Иди и не оглядывайся (Алексей Меньшиков) [1992, Спортивная драма, SATRip]

Ответить на тему
 
Автор Сообщение

user ®

Стаж: 7 лет 7 месяцев

Сообщений: 20008

Пост Пост: #1 от 18-Авг-2013 17:45

[Цитировать]

Иди и не оглядывайся
Жанр: Спортивная драма
Год выпуска: 1992
Продолжительность: 01 : 10 : 16
Режиссёр: Алексей Меньшиков
В ролях: Марина Сахарова, Игорь Миркурбанов, Надежда Озерова, Юрий Данабаев, Вячеслав Кириличев, Татьяна Малягина, Елена Бушуева-Цеханская
Описание: Режиссер-документалист Татьяна работает над фильмом о бывшем чемпионе Европы по боксу Вадиме Ларине. Как режиссер, она хочет, чтобы он вернулся на ринг, что сделало бы ее фильм более оптимистичным. Сам Ларин, тронутый вниманием Татьяны и влюбленный в нее, готов откликнуться на это пожелание. Однако победного возвращения на ринг не получилось
Сэмпл: http://multi-up.com/894796
Качество видео: SATRip
Формат видео: AVI
Видео: XviD , 704x528 (1.33:1) , 25 fps , 2071 kbps avg
Аудио: AC3 , 48 kHz , 192.00 kbps , 2/0 (L,R) ch

MediaInfo

General
Complete name : C:\Иди и не оглядывайся 1992.avi
Format : AVI
Format/Info : Audio Video Interleave
File size : 1.12 GiB
Duration : 1h 10mn
Overall bit rate : 2 273 Kbps
Writing library : VirtualDub build 35390/release
Video
ID : 0
Format : MPEG-4 Visual
Format settings, BVOP : No
Format settings, QPel : No
Format settings, GMC : No warppoints
Format settings, Matrix : Default (H.263)
Codec ID : XVID
Codec ID/Hint : XviD
Duration : 1h 10mn
Bit rate : 2 072 Kbps
Width : 704 pixels
Height : 528 pixels
Display aspect ratio : 4:3
Frame rate : 25.000 fps
Color space : YUV
Chroma subsampling : 4:2:0
Bit depth : 8 bits
Scan type : Progressive
Compression mode : Lossy
Bits/(Pixel*Frame) : 0.223
Stream size : 1.02 GiB (91%)
Audio
ID : 1
Format : AC-3
Format/Info : Audio Coding 3
Mode extension : CM (complete main)
Format settings, Endianness : Big
Codec ID : 2000
Duration : 1h 10mn
Bit rate mode : Constant
Bit rate : 192 Kbps
Channel(s) : 2 channels
Channel positions : Front: L R
Sampling rate : 48.0 KHz
Bit depth : 16 bits
Compression mode : Lossy
Stream size : 96.5 MiB (8%)
Alignment : Aligned on interleaves
Interleave, duration : 40 ms (1.00 video frame)
Interleave, preload duration : 512 ms

Скриншоты

Скачать

Скачать торрент!

Как скачивать? · Что такое торрент? · Рейтинг и ограничения

Сайт не распространяет и не хранит электронные версии произведений, а лишь предоставляет доступ к создаваемому пользователями каталогу ссылок на торрент-файлы, которые содержат только списки хеш-сумм

[Профиль] [ЛС]
Показать сообщения:    
Ответить на тему

Текущее время: Сегодня 05:56

Часовой пояс: GMT + 4



Вы не можете начинать темы
Вы не можете отвечать на сообщения
Вы не можете редактировать свои сообщения
Вы не можете удалять свои сообщения
Вы не можете голосовать в опросах
Вы не можете прикреплять файлы к сообщениям
Вы не можете скачивать файлы