Летние каникулы (Павел Бортников) [2013, комедия, мелодрама, SATRip]

Ответить на тему
 
Автор Сообщение

user ®

Стаж: 7 лет 7 месяцев

Сообщений: 20008

Пост Пост: #1 от 18-Авг-2013 17:45

[Цитировать]

Летние каникулы
Жанр: комедия, мелодрама
Год выпуска: 2013
Продолжительность: 01:18:10-Режиссёр: Павел Бортников
В ролях: Вячеслав Чепурченко, Александр Петров, Антон Соколов, Антонина Комиссарова, Алина Мазненкова и др.-Описание: Трое друзей из России решили поехать отдохнуть на абхазское побережье. Денис — добряк, музыкант и художник, вечно попадающий в нелепые ситуации, его друг Петя у которого в Абхазии в доме на берегу моря живет дедушка и Эля — сокурсница ребят, экономистка, влюбленная в Петю. Пока Петя и Эля выясняли свои сложные отношения, Денис влюбился в абхазскую красавицу Тинат. Тинат тоже понравился Денис, но все не так просто. На Кавказе свои законы, обычаи и нравы.-Доп. информация: Россия, Киностудия "Соль"
-Качество видео: SATRip
Формат видео: AVI
Видео: 704 x 400 (16:9), XviD, 25.000 fps, 1 116 Kbps, 0.159 bit/pixel
Аудио: 48.0 KHz, MP3, 2 channels, 128 Kbps

MediaInfo

Общее
Полное имя : E:\LetHie_kaHikuly.700mb.avi
Формат : AVI
Формат/Информация : Audio Video Interleave
Размер файла : 700 Мбайт
Продолжительность : 1 ч. 18 м.
Общий поток : 1252 Кбит/сек
Программа кодирования : VirtualDubMod 1.5.4.1 (build 2178/release)
Библиотека кодирования : VirtualDubMod build 2178/release
Видео
Идентификатор : 0
Формат : MPEG-4 Visual
Профиль формата : Advanced Simple@L5
Параметр BVOP формата : 1
Параметр QPel формата : Нет
Параметр GMC формата : Без точки перехода
Параметр матрицы формата : Выборочная
Идентификатор кодека : XVID
Идентификатор кодека/Подсказка : XviD
Продолжительность : 1 ч. 18 м.
Битрейт : 1116 Кбит/сек
Ширина : 704 пикселя
Высота : 400 пикселей
Соотношение сторон : 16:9
Частота кадров : 25,000 кадров/сек
Цветовое пространство : YUV
Субдискретизация насыщенности : 4:2:0
Битовая глубина : 8 бит
Тип развёртки : Прогрессивная
Метод сжатия : С потерями
Бит/(Пиксели*Кадры) : 0.159
Размер потока : 624 Мбайт (89%)
Библиотека кодирования : XviD 64
Аудио
Идентификатор : 1
Формат : MPEG Audio
Версия формата : Version 1
Профиль формата : Layer 3
Режим : Joint stereo
Расширение режима : MS Stereo
Идентификатор кодека : 55
Идентификатор кодека/Подсказка : MP3
Продолжительность : 1 ч. 18 м.
Вид битрейта : Постоянный
Битрейт : 128 Кбит/сек
Каналы : 2 канала
Частота : 48,0 КГц
Метод сжатия : С потерями
Размер потока : 71,6 Мбайт (10%)
Выравнивание : Соединение по промежуткам
Продолжительность промежутка : 80 мс. (2,00 видеокадра)
Время предзагрузки промежутка : 504 мс.
Библиотека кодирования : LAME3.97
Настройки программы : -m j -V 4 -q 2 -lowpass 17 -b 128

Скриншоты

Скачать

Скачать торрент!

Как скачивать? · Что такое торрент? · Рейтинг и ограничения

Сайт не распространяет и не хранит электронные версии произведений, а лишь предоставляет доступ к создаваемому пользователями каталогу ссылок на торрент-файлы, которые содержат только списки хеш-сумм

[Профиль] [ЛС]
Показать сообщения:    
Ответить на тему

Текущее время: Сегодня 23:47

Часовой пояс: GMT + 4



Вы не можете начинать темы
Вы не можете отвечать на сообщения
Вы не можете редактировать свои сообщения
Вы не можете удалять свои сообщения
Вы не можете голосовать в опросах
Вы не можете прикреплять файлы к сообщениям
Вы не можете скачивать файлы