Молодой герой / Юный герой / Молодой Чен Жен / Hero Youngster / Juvenile Chen Zhen / Shao nian Chen Zhen (Конг Хунг / Kong Hung, Лау Кей / Law Kei) [2004 г., боевик, боевые искусства, DVDRip] VO (Sam2007)

Ответить на тему
 
Автор Сообщение

user ®

Стаж: 11 лет

Сообщений: 15151

Пост Пост: #1 от 18-Авг-2013 14:35

[Цитировать]

Молодой герой / Юный герой / Молодой Чен Жен / Hero Youngster / Juvenile Chen Zhen / Shao nian Chen Zhen
Год выпуска: 2004
Страна: Гонконг
Производство: Lung Kong Film Productions, New Treasurer Films Company, Shanxi Film Studio
Жанр: боевик, боевые искусства
Продолжительность: 01:26:43
Перевод: одноголосый, закадровый Sam2007
Режиссер: Конг Хунг / Kong Hung, Лау Кей / Law Kei
В ролях: Юэнь Бяо, Цуи Сиу-Лунг, Бэнь Ню, Чоу Кин-Пинг, Марша Юэнь, Лау Кар-Йинг, Билли Чоу, Карел Вонг, Сю Цай-Ган, Чен Куан-Тай, Шум Чи-Хо, Чжао Шуи-Цин, Сун Цзян, Йип Кеунг, Шен Шоу-Нян...
Описание: История происходит накануне Второй Мировой Войны. Китай захвачен японцами. Только несколько отважных мастеров боевых искусств решаются противостоять оккупантам. Принцесса Цин (Марша Юань) владеет тайной картой, за которой охотятся японские офицеры (Билли Чоу и Карел Вонг). При участии юного парнишки Чен Жена (Цуи Сиу-Лунг), будущего национального героя Китая, она пытается найти своего дядю, так как только он может расшифровать карту. На своем пути она встречает таинственного уличного попрошайку, призывающего к сопротивлению захватчикам, а также владельца ресторана и повстанца, господина Ку (Юэнь Бяо), который помогает ей уйти от преследователей...
Автор релиза:
Качество видео: DVDRip [DVD5]
Формат файла: AVI
Видео: 720x400, 23.976 fps, MPEG-4 Visual, 1982 kbps
Аудио 1: 48 kHz, MP3, 2 ch, 128 kbps [Русский]
Аудио 2: 48 kHz, MP3, 2 ch, 128 kbps [Китайский]

MediaInfo

General
Format : AVI
Format/Info : Audio Video Interleave
File size : 1.36 GiB
Duration : 1h 26mn
Overall bit rate : 2 248 Kbps
Writing application : VirtualDubMod 1.5.10.3 (build 2550/release)
Writing library : VirtualDubMod build 2550/release
Video
ID : 0
Format : MPEG-4 Visual
Format profile : Advanced Simple@L5
Format settings, BVOP : 2
Format settings, QPel : No
Format settings, GMC : No warppoints
Format settings, Matrix : Default (MPEG)
Codec ID : XVID
Codec ID/Hint : XviD
Duration : 1h 26mn
Bit rate : 1 982 Kbps
Width : 720 pixels
Height : 400 pixels
Display aspect ratio : 16:9
Frame rate : 23.976 fps
Color space : YUV
Chroma subsampling : 4:2:0
Bit depth : 8 bits
Scan type : Progressive
Compression mode : Lossy
Bits/(Pixel*Frame) : 0.287
Stream size : 1.20 GiB (88%)
Writing library : XviD 1.2.1 (UTC 2008-12-04)
Audio #1
ID : 1
Format : MPEG Audio
Format version : Version 1
Format profile : Layer 3
Mode : Joint stereo
Codec ID : 55
Codec ID/Hint : MP3
Duration : 1h 38mn
Bit rate mode : Constant
Bit rate : 128 Kbps
Channel(s) : 2 channels
Sampling rate : 48.0 KHz
Compression mode : Lossy
Stream size : 90.4 MiB (6%)
Alignment : Aligned on interleaves
Interleave, duration : 42 ms (1.00 video frame)
Interleave, preload duration : 504 ms
Audio #2
ID : 2
Format : MPEG Audio
Format version : Version 1
Format profile : Layer 3
Mode : Joint stereo
Codec ID : 55
Codec ID/Hint : MP3
Duration : 1h 38mn
Bit rate mode : Constant
Bit rate : 128 Kbps
Channel(s) : 2 channels
Sampling rate : 48.0 KHz
Compression mode : Lossy
Stream size : 90.4 MiB (6%)
Alignment : Aligned on interleaves
Interleave, duration : 42 ms (1.00 video frame)
Interleave, preload duration : 504 ms

Обложки DVD

Скриншот c названием фильма

Скриншоты

Скачать

Скачать торрент! Молодой герой / Юный герой / Молодой Чен Жен / Hero Youngster / Juvenile Chen Zhen / Shao nian Chen Zhen (Конг Хунг / Kong Hung, Лау Кей / Law Kei) [2004 г., боевик, боевые искусства, DVDRip] VO (Sam2007)

Как скачивать? · Что такое торрент? · Рейтинг и ограничения

Сайт не распространяет и не хранит электронные версии произведений, а лишь предоставляет доступ к создаваемому пользователями каталогу ссылок на торрент-файлы, которые содержат только списки хеш-сумм

[Профиль] [ЛС]
Показать сообщения:    
Ответить на тему

Текущее время: Сегодня 09:26

Часовой пояс: GMT + 4



Вы не можете начинать темы
Вы не можете отвечать на сообщения
Вы не можете редактировать свои сообщения
Вы не можете удалять свои сообщения
Вы не можете голосовать в опросах
Вы не можете прикреплять файлы к сообщениям
Вы не можете скачивать файлы