Том и Джерри: Гигантское приключение / Tom and Jerry's Giant Adventure (Спайк Брандт / Spike Brandt, Тони Червоне / Tony Cervone) [2013 г., США, мультфильм, BDRip] Dub + Original (Eng) + Subs (Rus, Eng)

Ответить на тему
 
Автор Сообщение

user ®

Стаж: 12 лет

Сообщений: 15145

Пост Пост: #1 от 18-Авг-2013 08:05

[Цитировать]

Том и Джерри: Гигантское приключение / Tom and Jerry's Giant Adventure-
Год выпуска: 2013
Страна: США
Жанр: мультфильм
Продолжительность: 00:57:06
Перевод: Профессиональный (полное дублирование) + Оригинальная звуковая дорожка
Субтитры: Русские, Английские [SDH] (*.srt)-Режиссер: Спайк Брандт / Spike Brandt, Тони Червоне / Tony Cervone-Описание: Любимцы зрителей, легендарные Том и Джерри вновь оказываются втянутыми в увлекательное приключение!
На этот раз они вместе с юным Джеком возрождают известную всем сказку "Джек и волшебные бобы". Вместе они отчаянно пытаются спасти волшебный парк. Раздобыв волшебные бобы, они отправляются в путешествие, которое сулит им встречу с многими известными зрителям персонажами, такими как Спайк и Золотой гусь.
Смогут ли Том и Джерри положить конец своей извечной вражде, чтобы спасти волшебный парк? Смотрите Том и Джерри: Гигантское приключение, и узнаете!-Релиз от:
Автор рипа: denashekkk- -Качество: BDRip (Исходник: /Blu-Ray Disc/1080p)
Формат: AVI
Видео: 704x400 (1.76:1), 23.976 fps, XviD build 65 ~2081 kbps avg, 0.31 bit/pixel
Аудио #1: 48 kHz, AC3 Dolby Digital, 2/0 (L,R) Surround Encoded ch, ~192 kbps |DUB|
Аудио #2: 48 kHz, AC3 Dolby Digital, 3/2 (L,C,R,l,r) + LFE ch, ~448 kbps |ENG|
Размер: 1117.70 Mb (1/4 DVD5)
-

MediaInfo

General
Complete name                            : C:\Downloads\Tom.I.Dzherri.Gigantskoe.Priklyuchenie.2013.DUAL.BDRip.XviD.AC3.-HELLYWOOD\Tom.I.Dzherri.Gigantskoe.Priklyuchenie.2013.DUAL.BDRip.XviD.AC3.-HELLYWOOD.avi
Format                                   : AVI
Format/Info                              : Audio Video Interleave
File size                                : 1.09 GiB
Duration                                 : 57mn 6s
Overall bit rate                         : 2 736 Kbps
Movie name                               : Том и Джерри: Гигантское приключение / Tom and Jerry's Giant Adventure (2013)
Director                                 : denashekkk (Blu-ray Disc)
Writing application                      : VirtualDubMod 1.5.10.2 (build 2542/release)
Video
ID                                       : 0
Format                                   : MPEG-4 Visual
Format profile                           : Advanced Simple@L5
Format settings, BVOP                    : 2
Format settings, QPel                    : No
Format settings, GMC                     : No warppoints
Format settings, Matrix                  : Custom
Codec ID                                 : XVID
Codec ID/Hint                            : XviD
Duration                                 : 57mn 6s
Bit rate                                 : 2 082 Kbps
Width                                    : 704 pixels
Height                                   : 400 pixels
Display aspect ratio                     : 16:9
Frame rate                               : 23.976 fps
Color space                              : YUV
Chroma subsampling                       : 4:2:0
Bit depth                                : 8 bits
Scan type                                : Progressive
Compression mode                         : Lossy
Bits/(Pixel*Frame)                       : 0.308
Stream size                              : 850 MiB (76%)
Writing library                          : XviD 65
Audio #1
ID                                       : 1
Format                                   : AC-3
Format/Info                              : Audio Coding 3
Format profile                           : Dolby Digital
Mode extension                           : CM (complete main)
Format settings, Endianness              : Big
Codec ID                                 : 2000
Duration                                 : 57mn 6s
Bit rate mode                            : Constant
Bit rate                                 : 192 Kbps
Channel(s)                               : 2 channels
Channel positions                        : Front: L R
Sampling rate                            : 48.0 KHz
Bit depth                                : 16 bits
Compression mode                         : Lossy
Stream size                              : 78.4 MiB (7%)
Alignment                                : Split accross interleaves
Interleave, duration                     : 42 ms (1.00 video frame)
Interleave, preload duration             : 500 ms
Title                                    : Dub [Rus]
Audio #2
ID                                       : 2
Format                                   : AC-3
Format/Info                              : Audio Coding 3
Mode extension                           : CM (complete main)
Format settings, Endianness              : Big
Codec ID                                 : 2000
Duration                                 : 57mn 6s
Bit rate mode                            : Constant
Bit rate                                 : 448 Kbps
Channel(s)                               : 6 channels
Channel positions                        : Front: L C R, Side: L R, LFE
Sampling rate                            : 48.0 KHz
Bit depth                                : 16 bits
Compression mode                         : Lossy
Stream size                              : 183 MiB (16%)
Alignment                                : Split accross interleaves
Interleave, duration                     : 42 ms (1.00 video frame)
Interleave, preload duration             : 500 ms
Title                                    : Original [Eng]

-

Скриншот c названием мультфильма


-

Скриншоты


-
Скачать

Скачать торрент! Том и Джерри: Гигантское приключение / Tom and Jerry's Giant Adventure (Спайк Брандт / Spike Brandt, Тони Червоне / Tony Cervone) [2013 г., США, мультфильм, BDRip] Dub + Original (Eng) + Subs (Rus, Eng)

Как скачивать? · Что такое торрент? · Рейтинг и ограничения

Сайт не распространяет и не хранит электронные версии произведений, а лишь предоставляет доступ к создаваемому пользователями каталогу ссылок на торрент-файлы, которые содержат только списки хеш-сумм

[Профиль] [ЛС]
Показать сообщения:    
Ответить на тему

Текущее время: Сегодня 21:13

Часовой пояс: GMT + 4



Вы не можете начинать темы
Вы не можете отвечать на сообщения
Вы не можете редактировать свои сообщения
Вы не можете удалять свои сообщения
Вы не можете голосовать в опросах
Вы не можете прикреплять файлы к сообщениям
Вы не можете скачивать файлы