Добро пожаловать в капкан / Welcome to the Punch (Эрен Криви / Eran Creevy) [2013, Великобритания, США, боевик, триллер, криминал, BDRip 720p] [FRE Transfer] AVO (Дольский) + VO (lord666) + Subs (Rus, Eng) + Original (Eng)

Ответить на тему
 
Автор Сообщение

user ®

Стаж: 7 лет 7 месяцев

Сообщений: 20008

Пост Пост: #1 от 18-Авг-2013 08:05

[Цитировать]

Добро пожаловать в капкан / Welcome to the Punch Страна: Великобритания, США
Студия: Worldview Entertainment, Between The Eyes, Automatik Entertainment
Жанр: боевик, триллер, криминал
Год выпуска: 2013
Продолжительность: 01:39:47
Перевод 1: Авторский (одноголосый закадровый) А.Дольский
Перевод 2: Одноголосый (закадровый) lord666
Cубтитры: русские(Janetta),английские
Оригинальная аудиодорожка: английский
Режиссер: Эрен Криви / Eran Creevy
В ролях: Джеймс МакЭвой, Марк Стронг, Андреа Райзборо, Дэвид Моррисси, Питер Муллан, Джейсон Флеминг, Элайес Габел, Дэниэл Калуя, Дэниэл Мейс, Джонни Харрисел Дэниэл Калуя Дэниэл Мейс Джонни Харрис
Описание: Бывший преступник Джейкоб Стернбуд вынужден вернуться в Лондон из своего убежища, когда его сын вовлечен в ограбление пошедшее не так. У детектива Макса Левински появляется шанс поймать человека, которому всегда удавалось уйти. Соперники снова меряются силами, но они сталкиваются с более глубоким преступным заговором, с которым вынуждены бороться, чтобы выжить.

Тип релиза: BDRip 720p[TayTO]
Контейнер: MKV
Исходник:Welcome to the Punch 2013 1080p CAN Blu-ray AVC DTS-HD MA 5.1-EbP
Видео: AVC, 1280x534, 5149 Kbps, 23.976 fps
Аудио 1: Russian: 48 kHz, AC3, 3/2 (L,C,R,l,r) + LFE ch, ~448.00 kbps |А.Дольский|
Аудио 2: Russian: 48 kHz, AC3, 3/2 (L,C,R,l,r) + LFE ch, ~384.00 kbps |lord666|
Аудио 3: English: 48 kHz, DTS, 3/2 (L,C,R,l,r) + LFE ch, ~1536.00 kbps |Original|
Чаптеры:есть

Доп.информация

Дорога Дольского отсюда [url=http://***/forum/viewtopic.php?t=4511980]http://***/forum/viewtopic.php?t=4511980[/url]
Спасибо ed_rez

x264 log

x264 [info]: frame I:1241 Avg QP:12.77 size:106925
x264 [info]: frame P:34271 Avg QP:14.56 size: 47204
x264 [info]: frame B:108045 Avg QP:16.95 size: 20389
x264 [info]: consecutive B-frames: 5.1% 3.6% 9.2% 11.7% 12.6% 49.2% 6.4% 2.4%
encoded 143557 frames, 5.40 fps, 5282.17 kb/s

MediaInfo

General
Unique ID : 236706286976902641408616077690330169577 (0xB213F8FD0EC315949FD07FABAA2C40E9)
Complete name : D:\Welcome.to the.Punch.2013.720. BluRay DTS x264-Talian-.mkv
Format : Matroska
Format version : Version 2
File size : 5.32 GiB
Duration : 1h 39mn
Overall bit rate : 7 626 Kbps
Movie name : -Talian-
Encoded date : UTC 2013-08-17 15:51:45
Writing application : mkvmerge v5.7.0 ('The Whirlwind') built on Jul 8 2012 20:08:51
Writing library : libebml v1.2.3 + libmatroska v1.3.0
Video
ID : 1
Format : AVC
Format/Info : Advanced Video Codec
Format profile : High@L4.1
Format settings, CABAC : Yes
Format settings, ReFrames : 12 frames
Codec ID : V_MPEG4/ISO/AVC
Duration : 1h 39mn
Bit rate : 5 132 Kbps
Width : 1 280 pixels
Height : 534 pixels
Display aspect ratio : 2.40:1
Frame rate : 23.976 fps
Color space : YUV
Chroma subsampling : 4:2:0
Bit depth : 8 bits
Scan type : Progressive
Bits/(Pixel*Frame) : 0.313
Stream size : 3.58 GiB (67%)
Title : TayTO
Writing library : x264 core 135 r2345 f0c1c53
Encoding settings : cabac=1 / ref=12 / deblock=1:-3:-3 / analyse=0x3:0x133 / me=tesa / subme=11 / psy=1 / psy_rd=1.00:0.00 / mixed_ref=1 / me_range=16 / chroma_me=1 / trellis=2 / 8x8dct=1 / cqm=0 / deadzone=21,11 / fast_pskip=0 / chroma_qp_offset=-2 / threads=12 / lookahead_threads=2 / sliced_threads=0 / nr=0 / decimate=1 / interlaced=0 / bluray_compat=0 / constrained_intra=0 / bframes=7 / b_pyramid=2 / b_adapt=2 / b_bias=0 / direct=3 / weightb=1 / open_gop=0 / weightp=2 / keyint=250 / keyint_min=23 / scenecut=40 / intra_refresh=0 / rc=crf / mbtree=0 / crf=16.0 / qcomp=0.75 / qpmin=0 / qpmax=69 / qpstep=4 / ip_ratio=1.40 / pb_ratio=1.30 / aq=1:0.75
Language : English
Default : No
Forced : No
Matrix coefficients : BT.709-5, BT.1361, IEC 61966-2-4 709, SMPTE RP177
Audio #1
ID : 2
Format : AC-3
Format/Info : Audio Coding 3
Mode extension : CM (complete main)
Format settings, Endianness : Big
Codec ID : A_AC3
Duration : 1h 39mn
Bit rate mode : Constant
Bit rate : 448 Kbps
Channel(s) : 6 channels
Channel positions : Front: L C R, Side: L R, LFE
Sampling rate : 48.0 KHz
Bit depth : 16 bits
Compression mode : Lossy
Stream size : 320 MiB (6%)
Title : AVO-А. Дольский
Language : Russian
Default : Yes
Forced : No
Audio #2
ID : 3
Format : AC-3
Format/Info : Audio Coding 3
Mode extension : CM (complete main)
Format settings, Endianness : Big
Codec ID : A_AC3
Duration : 1h 39mn
Bit rate mode : Constant
Bit rate : 384 Kbps
Channel(s) : 6 channels
Channel positions : Front: L C R, Side: L R, LFE
Sampling rate : 48.0 KHz
Bit depth : 16 bits
Compression mode : Lossy
Stream size : 274 MiB (5%)
Title : VO-lord666
Language : Russian
Default : No
Forced : No
Audio #3
ID : 4
Format : DTS
Format/Info : Digital Theater Systems
Codec ID : A_DTS
Duration : 1h 39mn
Bit rate mode : Constant
Bit rate : 1 510 Kbps
Channel(s) : 6 channels
Channel positions : Front: L C R, Side: L R, LFE
Sampling rate : 48.0 KHz
Bit depth : 24 bits
Compression mode : Lossy
Stream size : 1.05 GiB (20%)
Title : Original
Language : English
Default : No
Forced : No
Text #1
ID : 5
Format : UTF-8
Codec ID : S_TEXT/UTF8
Codec ID/Info : UTF-8 Plain Text
Title : Sub-Janetta
Language : Russian
Default : No
Forced : No
Text #2
ID : 6
Format : UTF-8
Codec ID : S_TEXT/UTF8
Codec ID/Info : UTF-8 Plain Text
Title : Sub
Language : English
Default : No
Forced : No
Menu
00:00:00.000 : en:00:00:00.000
00:08:29.259 : en:00:08:29.259
00:15:54.745 : en:00:15:54.745
00:25:26.567 : en:00:25:26.567
00:32:20.355 : en:00:32:20.355
00:41:14.430 : en:00:41:14.430
00:49:53.616 : en:00:49:53.616
01:00:20.075 : en:01:00:20.075
01:08:27.270 : en:01:08:27.270
01:14:00.519 : en:01:14:00.519
01:23:20.787 : en:01:23:20.787
01:32:21.703 : en:01:32:21.703

Скриншоты

Source vs Encode



Скачать

Скачать торрент!

Как скачивать? · Что такое торрент? · Рейтинг и ограничения

Сайт не распространяет и не хранит электронные версии произведений, а лишь предоставляет доступ к создаваемому пользователями каталогу ссылок на торрент-файлы, которые содержат только списки хеш-сумм

[Профиль] [ЛС]
Показать сообщения:    
Ответить на тему

Текущее время: Сегодня 06:29

Часовой пояс: GMT + 4



Вы не можете начинать темы
Вы не можете отвечать на сообщения
Вы не можете редактировать свои сообщения
Вы не можете удалять свои сообщения
Вы не можете голосовать в опросах
Вы не можете прикреплять файлы к сообщениям
Вы не можете скачивать файлы