Спасите! Умоляю! / Спасите меня / Save Me (Алан Робертс / Alan Roberts) [1994, США, триллер, детектив, HDTV 1080i] DVO (НТВ+)

Ответить на тему
 
Автор Сообщение

user ®

Стаж: 7 лет 7 месяцев

Сообщений: 20008

Пост Пост: #1 от 18-Авг-2013 08:05

[Цитировать]

Спасите! Умоляю! / Спасите меня / Save Me
Страна: США
Студия: Spark Films
Жанр: триллер, детектив
Год выпуска: 1994
Продолжительность: 01:29:17
Перевод: Профессиональный (двухголосый закадровый) НТВ+
Cубтитры: нет
Оригинальная аудиодорожка: нет
Режиссер: Алан Робертс / Alan Roberts
В ролях: Гарри Хэмлин, Лизетт Энтони, Майкл Айронсайд, Стив Рейлсбэк, Оливия Хасси, Билл Нанн, Джозеф Кампанелла, Neil Ronco, Сигал Дайэмант, Райлли Мёрфи
Описание: Джим Стивенс (Гарри Хэмлин), способный сотрудник процветающей кампании, в преддверии развода совепшает шопинг и внезапно становится свидетелем и даже участником следующей сцены: молодая симпатичная девушка (Лизетт Энтони), выразительно глядя на Джима из-под объятий мужчины, незаметно для последненго приклеивает к двери записку, после чего увлекает своего воздыхателя прочь с этого места. В записке всего 2 слова «Спасите меня» и телефон. И с этого момента жизнь Джима превращается в какой то кошмар из цепи необъяснимых покушений, убийств, подстав и интриг, в которой сам Джим не понимает своей роли …

Тип релиза: HDTV 1080i
Контейнер: TS
Видео: AVC 1920x1080 (16:9) 25.0fps Bit rate 5144Kbps
Аудио: MP2 48.0KHz 2ch 192 Kbps rus

MediaInfo

General
ID : 1
Complete name : E:\torrent\Save me_HDTV 1080i.ts
Format : MPEG-TS
File size : 3.50 GiB
Duration : 1h 29mn
Overall bit rate : 5 615 Kbps
Maximum Overall bit rate : 35.5 Mbps
Video
ID : 4113 (0x1011)
Menu ID : 1 (0x1)
Format : AVC
Format/Info : Advanced Video Codec
Format profile : High@L4.0
Format settings, CABAC : Yes
Format settings, ReFrames : 3 frames
Format settings, GOP : M=1, N=64
Duration : 1h 29mn
Bit rate mode : Variable
Bit rate : 5 144 Kbps
Maximum bit rate : 40.0 Mbps
Width : 1 920 pixels
Height : 1 080 pixels
Display aspect ratio : 16:9
Frame rate : 25.000 fps
Standard : Component
Color space : YUV
Chroma subsampling : 4:2:0
Bit depth : 8 bits
Scan type : Interlaced
Scan order : Top Field First
Bits/(Pixel*Frame) : 0.099
Stream size : 3.21 GiB (92%)
Color primaries : BT.709-5, BT.1361, IEC 61966-2-4, SMPTE RP177
Transfer characteristics : BT.709-5, BT.1361
Matrix coefficients : BT.709-5, BT.1361, IEC 61966-2-4 709, SMPTE RP177
Audio
ID : 4352 (0x1100)
Menu ID : 1 (0x1)
Format : MPEG Audio
Format version : Version 1
Format profile : Layer 2
Duration : 1h 29mn
Bit rate mode : Constant
Bit rate : 192 Kbps
Channel(s) : 2 channels
Sampling rate : 48.0 KHz
Stream size : 123 MiB (3%)

Скриншот с названием фильма

Скриншоты


Скачать

Скачать торрент!

Как скачивать? · Что такое торрент? · Рейтинг и ограничения

Сайт не распространяет и не хранит электронные версии произведений, а лишь предоставляет доступ к создаваемому пользователями каталогу ссылок на торрент-файлы, которые содержат только списки хеш-сумм

[Профиль] [ЛС]
Показать сообщения:    
Ответить на тему

Текущее время: Сегодня 02:17

Часовой пояс: GMT + 4



Вы не можете начинать темы
Вы не можете отвечать на сообщения
Вы не можете редактировать свои сообщения
Вы не можете удалять свои сообщения
Вы не можете голосовать в опросах
Вы не можете прикреплять файлы к сообщениям
Вы не можете скачивать файлы