Приключения поросенка Фунтика (Неуловимый Фунтик, Фунтик и сыщики, Фунтик и старушка с усами, Фунтик в цирке) (Анатолий Солин) [1986-1988 г., мультфильм, DVB]

Ответить на тему
 
Автор Сообщение

user ®

Стаж: 7 лет 7 месяцев

Сообщений: 20008

Пост Пост: #1 от 17-Авг-2013 23:45

[Цитировать]

Приключения поросенка Фунтика
Жанр: мультфильм
Год выпуска: 1986-1988
Продолжительность: 00:10:10 + 00:10:01 + 00:09:54 + 00:09:16
Режиссёр: Анатолий Солин
Описание: мультфильм о том, как поросенок Фунтик сбегает от своей хозяйки, госпожи Беладонны, злой и жадной хозяйки универмага «Слеза ребенка», потому что не хочет обманывать детей и ложью выманивать у них деньги для Беладонны. Хозяйка начинает безжалостно преследовать поросенка, который мог приносить ей неплохой доход. Ей помогают тупой начальник полиции Фокстрот и суетливые сыщики Добер и Пинчер. Но Фунтик случайно встречает в лесу дядюшку Мокуса и Бамбино - циркачей и отправляется с ними в путешествие навстречу новой жизни ...
1. "Неуловимый Фунтик. 1 серия" 1986г
2. "Фунтик и сыщики. 2 серия" 1986г.
3. "Фунтик и старушка с усами. 3 серия" 1987г.
4. "Фунтик в цирке. 4 серия" 1988г.
Доп. информация:

Релиз группы:
Трансляция спутникового канала: "Карусель"
Качество видео: DVB
Формат видео: MPEG-PS
Видео: MPEG2 Video, 720x576, 25 fps, 3600 kbps
Аудио: MPEG Audio, 2 сh, 48 kHz, 192 kbps

MediaInfo

D:\Приключения Фунтика\1c. Неуловимый Фунтик (1986)_DVB by SLuMeP.mpg
General
Complete name : D:\Приключения Фунтика\1c. Неуловимый Фунтик (1986)_DVB by SLuMeP.mpg
Format : MPEG-PS
File size : 281 MiB
Duration : 10mn 10s
Overall bit rate mode : Variable
Overall bit rate : 3 863 Kbps
Writing library : (c) 1998-2010 Womble Multimedia, Inc. / MPEG Video Wizard DVD 5.0.0.114 (01/2010) / Apr 20 2010
Video #224
ID : 224 (0xE0)
Format : MPEG Video
Format version : Version 2
Format profile : Main@Main
Format settings, BVOP : Yes
Format settings, Matrix : Custom
Duration : 10mn 10s
Bit rate mode : Variable
Bit rate : 3 594 Kbps
Maximum bit rate : 5 000 Kbps
Width : 720 pixels
Height : 576 pixels
Display aspect ratio : 4:3
Frame rate : 25.000 fps
Standard : PAL
Color space : YUV
Chroma subsampling : 4:2:0
Bit depth : 8 bits
Scan type : Interlaced
Scan order : Top Field First
Compression mode : Lossy
Bits/(Pixel*Frame) : 0.347
Stream size : 261 MiB (93%)
Writing library : (c) 1998-2010 Womble Multimedia, Inc. / MPEG Video Wizard DVD 5.0.0.114 (01/2010) / Apr 20 2010
Audio #192
ID : 192 (0xC0)
Format : MPEG Audio
Format version : Version 1
Format profile : Layer 2
Duration : 10mn 10s
Bit rate mode : Constant
Bit rate : 192 Kbps
Channel(s) : 2 channels
Sampling rate : 48.0 KHz
Compression mode : Lossy
Stream size : 14.0 MiB (5%)
Menu
Скачать

Скачать торрент!

Как скачивать? · Что такое торрент? · Рейтинг и ограничения

Сайт не распространяет и не хранит электронные версии произведений, а лишь предоставляет доступ к создаваемому пользователями каталогу ссылок на торрент-файлы, которые содержат только списки хеш-сумм

[Профиль] [ЛС]
Показать сообщения:    
Ответить на тему

Текущее время: Сегодня 03:15

Часовой пояс: GMT + 4



Вы не можете начинать темы
Вы не можете отвечать на сообщения
Вы не можете редактировать свои сообщения
Вы не можете удалять свои сообщения
Вы не можете голосовать в опросах
Вы не можете прикреплять файлы к сообщениям
Вы не можете скачивать файлы