Возвращение демона / Return of the Demon / Mo gao yi zhang (Вон Ин / Wong Ying) [1987, Гонконг, мистика, комедия, DVDRip] Sub Rus

Ответить на тему
 
Автор Сообщение

user ®

Стаж: 11 лет

Сообщений: 15151

Пост Пост: #1 от 17-Авг-2013 23:45

[Цитировать]

Возвращение демона / Return of the Demon / Mo gao yi zhang
Страна: Гонконг
Жанр: мистика, комедия
Год выпуска: 1987
Продолжительность: 01:31:43-Перевод: Субтитры русские - Message of death
Субтитры: русские (вшитые)
Оригинальная аудиодорожка: Мандаринский-Режиссер: Вон Ин / Wong Ying-В ролях: Дик Вэй, У Ма, Роберт Мак, Шин Фуй Он, Эмили Чу-Описание: Монстр (Дик Вэй) искал путь к вечной жизни, создав фальшивую карту сокровищ, чтобы привлечь людей в год Хоя, чтобы завладеть их душами и стать бессмертным. Охотники за сокровищами находят статую Будды указанной на карте в ладонях, которой якобы спрятано сокровище.
Разъединив ладони, они находят сундук, в котором запрет тот самый монстр , открыв сундук они выпускают его на волю...(Message of death)- -Качество видео: DVDRip (DVD5)
Формат видео: AVI
Видео: XviD, 720x368 (1.96:1), 23.976 fps, 1990 kbps avg, 0.31 bit/pixel
Аудио : Мандаринский MPEG layer 3, 128 kbps
-

Доп.инфо

Рип: Message of death
Постер: Public Enemy (((

MediaInfo

Format : AVI
Format/Info : Audio Video Interleave
File size : 1.36 GiB
Duration : 1h 31mn
Overall bit rate : 2 128 Kbps
Writing application : VirtualDubMod 1.5.10.3 | www.virtualdub-fr.org || (build 2550/release)
Writing library : VirtualDubMod build 2550/release
Video
ID : 0
Format : MPEG-4 Visual
Format profile : Advanced Simple@L5
Format settings, BVOP : 1
Format settings, QPel : No
Format settings, GMC : No warppoints
Format settings, Matrix : Custom
Codec ID : XVID
Codec ID/Hint : XviD
Duration : 1h 31mn
Bit rate : 1 991 Kbps
Width : 720 pixels
Height : 368 pixels
Display aspect ratio : 1.957
Frame rate : 23.976 fps
Color space : YUV
Chroma subsampling : 4:2:0
Bit depth : 8 bits
Scan type : Progressive
Compression mode : Lossy
Bits/(Pixel*Frame) : 0.313
Stream size : 1.28 GiB (94%)
Writing library : XviD 73
Audio
ID : 1
Format : MPEG Audio
Format version : Version 1
Format profile : Layer 3
Codec ID : 55
Codec ID/Hint : MP3
Duration : 1h 31mn
Bit rate mode : Constant
Bit rate : 128 Kbps
Channel(s) : 2 channels
Sampling rate : 48.0 KHz
Compression mode : Lossy
Stream size : 84.0 MiB (6%)
Alignment : Aligned on interleaves
Interleave, duration : 42 ms (1.00 video frame)
Interleave, preload duration : 504 ms

Скриншот с названием

Скриншоты

Скачать

Скачать торрент! Возвращение демона / Return of the Demon / Mo gao yi zhang (Вон Ин / Wong Ying) [1987, Гонконг, мистика, комедия, DVDRip] Sub Rus

Как скачивать? · Что такое торрент? · Рейтинг и ограничения

Сайт не распространяет и не хранит электронные версии произведений, а лишь предоставляет доступ к создаваемому пользователями каталогу ссылок на торрент-файлы, которые содержат только списки хеш-сумм

[Профиль] [ЛС]
Показать сообщения:    
Ответить на тему

Текущее время: Сегодня 18:05

Часовой пояс: GMT + 4



Вы не можете начинать темы
Вы не можете отвечать на сообщения
Вы не можете редактировать свои сообщения
Вы не можете удалять свои сообщения
Вы не можете голосовать в опросах
Вы не можете прикреплять файлы к сообщениям
Вы не можете скачивать файлы