Хамелеон / Oosaravelli (Сурендер Редди / Surender Reddy) [2011, Индия, Мелодрама, HDRip] МVO + Sub Rus (песни)

Ответить на тему
 
Автор Сообщение

user ®

Стаж: 12 лет

Сообщений: 15125

Пост Пост: #1 от 17-Авг-2013 23:45

[Цитировать]

Хамелеон / Oosaravelli
-Страна: Индия
Жанр: Мелодрама
Год выпуска: 2011
Продолжительность: 02:42:08-Язык: Телугу
Перевод: Профессиональный (многоголосый закадровый) - Red Media
Cубтитры: Есть (только песни)
Перевод субтитров: witaa--Режиссер: Сурендер Редди / Surender Reddy-В ролях: НТР-мл., Таманна Бхатия, Пракаш Радж, Пайял Гхош, Шаам--Описание: Люди говорят о нем всякое – сколько людей, столько и мнений. Одно несомненно: Тони (НТР – мл.) – незаурядная личность, он никого и ничего не боится, и если уж дает кому-то обещание, то выполняет его, не задумываясь о цене. В Кашмире Тони встречает красивую девушку, но обстоятельства не располагают к романтике – ему нужно спасти ее из рук террористов. Тони находит Нихарику (Тамана) в Хайдарабаде и начинает настойчиво преследовать ее. Его не смущает, что Нихарика помолвлена с Ракешем. Хуже того, Тони не просто разлучает Нихарику с ее женихом, он жестоко убивает Ракеша, а месте с ним и брата главного мумбайского мафиози Брата Аджу (Пракаш Радж). После этого он настойчиво ищет встречи с преступниками. Нахарика – то ли приманка, то ли жертва, в любом случае, она играет в жизни Тони слишком важную роль...-- | Трейлер | Сэмпл--Качество видео: HDRip (исх. BDRip 720p)
Формат видео: AVI-Видео: XviD, 672х288, 24 fps, 1155 Kbps
Аудио: MP3, 44.1 KHz, 2ch, 128 Kbps
Формат субтитров: hardsub (неотключаемые, вшитые в картинку)-Доп. информация: В начале фильма на несколько фраз наложены субтитры вместо голосового перевода. Приношу извинения за доставленные неудобства.--Сэмпл / Sample--Риппер, сведение звука: soso4eg
Перевод субтитров: witaa (большое спасибо!)-- -
-

Скриншоты с названием:


-

Скриншоты:


-

MediaInfo:

Общее
Полное имя : C:\INDIYA\[Релизы]\Hameleon.2011.HDRip.XviD.soso4eg.avi
Формат : AVI
Формат/Информация : Audio Video Interleave
Размер файла : 1,46 Гбайт
Продолжительность : 2 ч. 42 м.
Общий поток : 1292 Кбит/сек
Название фильма : Hameleon.2011.HDRip.XviD.soso4eg
Программа кодирования : VirtualDubMod 1.5.10.3 | www.virtualdub-fr.org || (build 2550/release)
Видео
Идентификатор : 0
Формат : MPEG-4 Visual
Профиль формата : Advanced Simple@L5
Параметр BVOP формата : 2
Параметр QPel формата : Нет
Параметр GMC формата : Без точки перехода
Параметр матрицы формата : Default (MPEG)
Идентификатор кодека : XVID
Идентификатор кодека/Подсказка : XviD
Продолжительность : 2 ч. 42 м.
Битрейт : 1155 Кбит/сек
Ширина : 672 пикселя
Высота : 288 пикселей
Соотношение сторон : 2,35:1
Частота кадров : 24,000 кадра/сек
Цветовое пространство : YUV
Субдискретизация насыщенности : 4:2:0
Битовая глубина : 8 бит
Тип развёртки : Прогрессивная
Метод сжатия : С потерями
Бит/(Пиксели*Кадры) : 0.249
Размер потока : 1,31 Гбайт (89%)
Библиотека кодирования : XviD 1.2.1 (UTC 2008-12-04)
Аудио
Идентификатор : 1
Формат : MPEG Audio
Версия формата : Version 1
Профиль формата : Layer 3
Идентификатор кодека : 55
Идентификатор кодека/Подсказка : MP3
Продолжительность : 2 ч. 42 м.
Вид битрейта : Постоянный
Битрейт : 128 Кбит/сек
Каналы : 2 канала
Частота : 44,1 КГц
Метод сжатия : С потерями
Размер потока : 148 Мбайт (10%)
Выравнивание : Разделение по промежуткам
Продолжительность промежутка : 42 мс. (1,00 видеокадр)
Время предзагрузки промежутка : 500 мс.
-
Скачать

Скачать торрент! Хамелеон / Oosaravelli (Сурендер Редди / Surender Reddy) [2011, Индия, Мелодрама, HDRip] МVO + Sub Rus (песни)

Как скачивать? · Что такое торрент? · Рейтинг и ограничения

Сайт не распространяет и не хранит электронные версии произведений, а лишь предоставляет доступ к создаваемому пользователями каталогу ссылок на торрент-файлы, которые содержат только списки хеш-сумм

[Профиль] [ЛС]
Показать сообщения:    
Ответить на тему

Текущее время: Сегодня 00:51

Часовой пояс: GMT + 4



Вы не можете начинать темы
Вы не можете отвечать на сообщения
Вы не можете редактировать свои сообщения
Вы не можете удалять свои сообщения
Вы не можете голосовать в опросах
Вы не можете прикреплять файлы к сообщениям
Вы не можете скачивать файлы