Вернись к нам, мама / Нежные чувства / Come Back to Us, Mother (Улань Тана / Wulan Tana) [2005, Китай, Драма, DVDRip] VO D.I.M.

Ответить на тему
 
Автор Сообщение

user ®

Стаж: 11 лет

Сообщений: 15151

Пост Пост: #1 от 17-Авг-2013 15:25

[Цитировать]

Вернись к нам, мама / Нежные чувства / Come Back to Us, Mother
Страна: Китай
Жанр: Драма
Год выпуска: 2005
Продолжительность: 1:28:36
Перевод: Одноголосый закадровый D.I.M.
Cубтитры: нет
Режиссер: Улань Тана / Wulan Tana
В ролях: Сун Юньчен / Song Yuncheng
Ши Юньпэн / Shi Yunpeng
Хасы Гаова / Hasi Gaowa
Описание: Отец маленького Дундуна жертвует своей работой
в пользу матери-одиночки. Теперь их семье приходится туго.
Мать уезжает с бывшим любовником на заработки в другой город.
Отец никак не может найти работу и сын перестаёт ходить в школу,
потому что нечем платить за учёбу.
Спустя какое-то время отец с сыном
отправляются на поиски запропастившейся мамаши,
зарабатывая себе на жизнь нелёгким трудом.
Этот фильм от режиссёра, снявшего "Тёплую весну".
Кто уже подзабыл напомню, это был фильм про девочку-сироту,
которую удочерил пожилой мужчина в деревне.
По эмоциям "Вернись к нам, мама" ничем не уступает "Тёплой весне".
Поэтому глубокие душевные переживания гарантированы.

Это шестидесятый фильм с моим переводом и озвучкой, выложенный здесь.
Сэмпл: http://multi-up.com/894630
Качество видео: DVDRip
Формат видео: AVI
Видео: 720*416 (16:9), 23,976 fps, MPEG-4 Visual (XviD) ~ 2073 kbps avg, 0.289 bit/pixel
Аудио: MPEG Audio Layer 3, 48000Hz, stereo, 128kbps

MediaInfo

Общее
Полное имя : D:\TORENT\РАЗДАЧИ (РИПЫ)\Come Back to Us , Mother.avi
Формат : AVI
Формат/Информация : Audio Video Interleave
Размер файла : 1,37 Гбайт
Продолжительность : 1 ч. 28 м.
Общий поток : 2210 Кбит/сек
Программа кодирования : VirtualDubModRus 1.5.10.2 (build 2542/release)
Библиотека кодирования : VirtualDubMod build 2542/release
Видео
Идентификатор : 0
Формат : MPEG-4 Visual
Профиль формата : Advanced Simple@L5
Параметр BVOP формата : 1
Параметр QPel формата : Нет
Параметр GMC формата : Без точки перехода
Параметр матрицы формата : Выборочная
Идентификатор кодека : XVID
Идентификатор кодека/Подсказка : XviD
Продолжительность : 1 ч. 28 м.
Битрейт : 2073 Кбит/сек
Ширина : 720 пикс.
Высота : 416 пикс.
Соотношение сторон : 16:9
Частота кадров : 23,976 кадр/сек
Цветовое пространство : YUV
Подвыборка цветности : 4:2:0
Битовая глубина : 8 бит
Тип развёртки : Прогрессивная
Метод сжатия : С потерями
Бит/(Пиксели*Кадры) : 0.289
Размер потока : 1,28 Гбайт (94%)
Библиотека кодирования : XviD 63
Аудио
Идентификатор : 1
Формат : MPEG Audio
Версия формата : Version 1
Профиль формата : Layer 3
Режим : Joint stereo
Идентификатор кодека : 55
Идентификатор кодека/Подсказка : MP3
Продолжительность : 1 ч. 28 м.
Вид битрейта : Постоянный
Битрейт : 128 Кбит/сек
Канал(ы) : 2 канала(ов)
Частота : 48,0 КГц
Метод сжатия : С потерями
Размер потока : 81,1 Мбайт (6%)
Выравнивание : Соединение по промежуткам
Продолжительность промежутка : 42 мс. (1,00 видеокадр)
Время предзагрузки промежутка : 504 ms
Язык : Russian

Скриншот c названием фильма

Скриншоты

Скачать

Скачать торрент! Вернись к нам, мама / Нежные чувства / Come Back to Us, Mother (Улань Тана / Wulan Tana) [2005, Китай, Драма, DVDRip] VO D.I.M.

Как скачивать? · Что такое торрент? · Рейтинг и ограничения

Сайт не распространяет и не хранит электронные версии произведений, а лишь предоставляет доступ к создаваемому пользователями каталогу ссылок на торрент-файлы, которые содержат только списки хеш-сумм

[Профиль] [ЛС]
Показать сообщения:    
Ответить на тему

Текущее время: Сегодня 13:22

Часовой пояс: GMT + 4



Вы не можете начинать темы
Вы не можете отвечать на сообщения
Вы не можете редактировать свои сообщения
Вы не можете удалять свои сообщения
Вы не можете голосовать в опросах
Вы не можете прикреплять файлы к сообщениям
Вы не можете скачивать файлы