Проповедник с пулемётом / Machine Gun Preacher (Марк Форстер / Marc Forster) [2011, США, боевик, криминал, драма, биография, BDRip 1080p] [Nor Transfer] Dub + MVO (СТС) + Original Eng + Subs (Rus, Eng)

Ответить на тему
 
Автор Сообщение

user ®

Стаж: 7 лет 7 месяцев

Сообщений: 20008

Пост Пост: #1 от 17-Авг-2013 07:05

[Цитировать]

Проповедник с пулемётом / Machine Gun Preacher«Hope is the greatest weapon of all» Год выпуска: 2011
Страна: США
Жанр: боевик, криминал, драма, биография
Продолжительность: 02:08:43.562
Перевод 1: Профессиональный (дублированный) Rus Blu-ray
Перевод 2: Профессиональный (многоголосый закадровый) СТС
Оригинальная аудиодорожка: Английская
Субтитры: Русские (Full Rus Blu-ray, Full Voronine, SDH Voronine), английские (Full, SDH)
Студия: Relativity Media, Virgin Produced, Apparatus Productions
Режиссёр: Марк Форстер / Marc Forster
В ролях: Джерард Батлер, Мишель Монахэн, Кэти Бэйкер, Майкл Шэннон, Мадлен Кэрролл, Соулеймейн Сай Савейн, Грант Р. Краузе, Ривис Грэхэм, Питер Кэри, Барбара Ковен и др.
Описание: Байкер Сэм Чайлдерс имел множество проблем с законом, но после выхода из тюрьмы, вняв мольбам жены Линн, начал посещать церковь. Бывшего преступника словно подменили: он стал примерным прихожанином, основал строительную компанию и сам возвел с нуля протестантский храм для тех, кого благополучные американцы презрительно именовали «отбросами общества»… Ровное течение жизни Сэма меняется после миссионерской поездки в Уганду и Судан.
Проникнувшись состраданием к африканским детям, он решает основать приют, в котором те чувствовали бы себя в безопасности от боевиков Господней армии Сопротивления, набирающих себе солдат и сексуальных рабынь даже среди малолетних. Своих подопечных, если потребуется, Сэм готов защищать с оружием в руках. Однако в своем рвении Чайлдерс забывает о том, что обратной стороной любого благого порыва может стать одержимость…
Качество: BDRip 1080p (WiKi)
Контейнер: MKV
Видео кодек: MPEG-4 AVC Video
Аудио кодек: DTS / AC3
Видео: MPEG-4 AVC Video / 17391 kbps / 1920x800p / 24,000 fps / 2.40:1 / 0.472 bit/pix / High@L4.1
Аудио 1: Русский / DTS / 5.1 / 48 kHz / 1536 kbps / 16-bit / Профессиональный (дублированный) Rus Blu-ray
Аудио 2: Русский / AC3 / 2.0 / 48 kHz / 192 kbps / 16-bit / Профессиональный (многоголосый закадровый) СТС
Аудио 3: English / DTS / 5.1 / 48 kHz / 1536 kbps / 24-bit / Оригинал
Навигация по главам: да

Скриншот с названием фильма

MediaInfo

C:\***\Проповедник с пулемётом (Machine Gun Preacher) 2011, США, боевик, криминал, драма, биография, Nor Transfer BDRip 1080p GORESEWAGE.mkv
General
Unique ID : 201333594726127655937261861380456785977 (0x9777709C97C54BED8839561559E92839)
Complete name : C:\***\Проповедник с пулемётом (Machine Gun Preacher) 2011, США, боевик, криминал, драма, биография, Nor Transfer BDRip 1080p GORESEWAGE.mkv
Format : Matroska
Format version : Version 4 / Version 2
File size : 18.5 GiB
Duration : 2h 8mn
Overall bit rate : 20.6 Mbps
Movie name : GORESEWAGE
Encoded date : UTC 2013-08-16 18:01:32
Writing application : mkvmerge v6.1.0 ('Old Devil') built on Mar 31 2013 15:21:18
Writing library : libebml v1.3.0 + libmatroska v1.4.0
Video #1
ID : 1
Format : AVC
Format/Info : Advanced Video Codec
Format profile : High@L4.1
Format settings, CABAC : Yes
Format settings, ReFrames : 5 frames
Codec ID : V_MPEG4/ISO/AVC
Bit rate : 17.4 Mbps
Width : 1 920 pixels
Height : 800 pixels
Display aspect ratio : 2.40:1
Frame rate mode : Variable
Original frame rate : 24.000 fps
Color space : YUV
Chroma subsampling : 4:2:0
Bit depth : 8 bits
Scan type : Progressive
Bits/(Pixel*Frame) : 0.472
Title : GORESEWAGE
Writing library : x264 core 120 r2120 0c7dab9
Encoding settings : cabac=1 / ref=5 / deblock=1:-3:-3 / analyse=0x3:0x133 / me=umh / subme=10 / psy=1 / psy_rd=1.10:0.15 / mixed_ref=1 / me_range=64 / chroma_me=1 / trellis=2 / 8x8dct=1 / cqm=0 / deadzone=21,11 / fast_pskip=0 / chroma_qp_offset=-3 / threads=12 / sliced_threads=0 / nr=0 / decimate=1 / interlaced=0 / bluray_compat=0 / constrained_intra=0 / bframes=8 / b_pyramid=2 / b_adapt=2 / b_bias=0 / direct=3 / weightb=1 / open_gop=0 / weightp=2 / keyint=250 / keyint_min=24 / scenecut=40 / intra_refresh=0 / rc_lookahead=250 / rc=2pass / mbtree=1 / bitrate=17391 / ratetol=1.0 / qcomp=0.60 / qpmin=0 / qpmax=69 / qpstep=4 / cplxblur=20.0 / qblur=0.5 / ip_ratio=1.40 / aq=1:0.85
Language : English
Default : Yes
Forced : No
Audio #2
ID : 2
Format : DTS
Format/Info : Digital Theater Systems
Codec ID : A_DTS
Duration : 2h 8mn
Bit rate mode : Constant
Bit rate : 1 510 Kbps
Channel(s) : 6 channels
Channel positions : Front: L C R, Side: L R, LFE
Sampling rate : 48.0 KHz
Bit depth : 16 bits
Compression mode : Lossy
Stream size : 1.36 GiB (7%)
Title : Профессиональный (дублированный) Rus Blu-ray
Language : Russian
Default : Yes
Forced : No
Audio #3
ID : 3
Format : AC-3
Format/Info : Audio Coding 3
Mode extension : CM (complete main)
Format settings, Endianness : Big
Codec ID : A_AC3
Duration : 2h 8mn
Bit rate mode : Constant
Bit rate : 192 Kbps
Channel(s) : 2 channels
Channel positions : Front: L R
Sampling rate : 48.0 KHz
Bit depth : 16 bits
Compression mode : Lossy
Stream size : 177 MiB (1%)
Title : Профессиональный (многоголосый закадровый) СТС
Language : Russian
Default : No
Forced : No
Audio #4
ID : 4
Format : DTS
Format/Info : Digital Theater Systems
Codec ID : A_DTS
Duration : 2h 8mn
Bit rate mode : Constant
Bit rate : 1 510 Kbps
Channel(s) : 6 channels
Channel positions : Front: L C R, Side: L R, LFE
Sampling rate : 48.0 KHz
Bit depth : 24 bits
Compression mode : Lossy
Stream size : 1.36 GiB (7%)
Title : Оригинал
Language : English
Default : No
Forced : No
Text #5
ID : 5
Format : UTF-8
Codec ID : S_TEXT/UTF8
Codec ID/Info : UTF-8 Plain Text
Title : Full Rus Blu-ray
Language : Russian
Default : No
Forced : No
Text #6
ID : 6
Format : UTF-8
Codec ID : S_TEXT/UTF8
Codec ID/Info : UTF-8 Plain Text
Title : Full Voronine
Language : Russian
Default : No
Forced : No
Text #7
ID : 7
Format : UTF-8
Codec ID : S_TEXT/UTF8
Codec ID/Info : UTF-8 Plain Text
Title : SDH Voronine
Language : Russian
Default : No
Forced : No
Text #8
ID : 8
Format : UTF-8
Codec ID : S_TEXT/UTF8
Codec ID/Info : UTF-8 Plain Text
Title : Full
Language : English
Default : No
Forced : No
Text #9
ID : 9
Format : UTF-8
Codec ID : S_TEXT/UTF8
Codec ID/Info : UTF-8 Plain Text
Title : SDH
Language : English
Default : No
Forced : No
Menu
00:00:00.000 : en:00:00:00.000
00:10:57.083 : en:00:10:57.083
00:22:38.708 : en:00:22:38.708
00:34:02.625 : en:00:34:02.625
00:39:46.375 : en:00:39:46.375
00:50:14.042 : en:00:50:14.042
00:59:32.292 : en:00:59:32.292
01:11:40.500 : en:01:11:40.500
01:25:36.292 : en:01:25:36.292
01:37:52.167 : en:01:37:52.167
01:47:20.625 : en:01:47:20.625
01:58:31.292 : en:01:58:31.292

Полноразмерные постеры

Скачать

Скачать торрент!

Как скачивать? · Что такое торрент? · Рейтинг и ограничения

Сайт не распространяет и не хранит электронные версии произведений, а лишь предоставляет доступ к создаваемому пользователями каталогу ссылок на торрент-файлы, которые содержат только списки хеш-сумм

[Профиль] [ЛС]
Показать сообщения:    
Ответить на тему

Текущее время: Сегодня 08:41

Часовой пояс: GMT + 4



Вы не можете начинать темы
Вы не можете отвечать на сообщения
Вы не можете редактировать свои сообщения
Вы не можете удалять свои сообщения
Вы не можете голосовать в опросах
Вы не можете прикреплять файлы к сообщениям
Вы не можете скачивать файлы