18 бронзовых девушек Шаолиня / The 18 Bronze Girls of Shaolin / Bronze Girls of Shaolin / 18 Bronzegirls (Чиен Лай-Е / Chien Lai Yeh) [1978, Тайвань, боевые искусства, VHSRip] VO (Прокс)

Ответить на тему
 
Автор Сообщение

user ®

Стаж: 11 лет

Сообщений: 15151

Пост Пост: #1 от 16-Авг-2013 22:45

[Цитировать]

18 бронзовых девушек Шаолиня / The 18 Bronze Girls of Shaolin / Bronze Girls of Shaolin / 18 Bronzegirls
Страна: Тайвань
Жанр: боевые искусства
Год выпуска: 1978
Продолжительность: 01:29:11
Перевод: Одноголосый закадровый Прокс
Cубтитры: нет
Режиссер: Чиен Лай-Е / Chien Lai Yeh
В ролях: Дорис Лун, Кам Конг, Юэ Хуа, Ли Ин, Лю Шань, Дун Фанъюй, Сыма Юйцзяо
Описание: Бронзовые, и красивые, 18 Бронзовых Девушек Шаолиня поддерживают закон и порядок в пределах храма до тех пор пока нечестивый вождь маньчжур, не захотел получить тайное учебное пособие Шаолинь. Минская патриотка Бай Юн Фенг объединяется с бронзовой девушкой применяя кунг-фу Коготь Тигра и кунг-фу Солнца и Луны в этом фильме!
Благодарность: За исходник благодарность выражается loxaba.
Сэмпл: http://multi-up.com/894448
Качество видео: VHSRip
Формат видео: AVI
Видео: 688x352 (1.95:1), 25 fps, XviD build 50 ~2056 kbps avg, 0.34 bit/pixel
Аудио: 48 kHz, MPEG Layer 3, 2 ch, ~128.00 kbps avg

MediaInfo

Format : AVI
Format/Info : Audio Video Interleave
File size : 1,37 Гбайт
Duration : 1 ч. 29 м.
Overall bit rate : 2195 Кбит/сек
Writing application : VirtualDubMod 1.5.10.3 | www.virtualdub-fr.org || (build 2550/release)
Writing library : VirtualDubMod build 2550/release
Видео
ID : 0
Format : MPEG-4 Visual
Format profile : Advanced Simple@L5
Format settings, BVOP : 2
Format settings, QPel : Нет
Format settings, GMC : Без точки перехода
Format settings, Matrix : Default (MPEG)
Codec ID : XVID
Codec ID/Hint : XviD
Duration : 1 ч. 29 м.
Bit rate : 2057 Кбит/сек
Width : 688 пикселей
Height : 352 пикселя
Display aspect ratio : 1,955
Frame rate : 25,000 кадров/сек
Color space : YUV
Chroma subsampling : 4:2:0
Bit depth : 8 бит
Scan type : Прогрессивная
Compression mode : С потерями
Bits/(Pixel*Frame) : 0.340
Stream size : 1,28 Гбайт (94%)
Writing library : XviD 1.2.1 (UTC 2008-12-04)
Аудио
ID : 1
Format : MPEG Audio
Format version : Version 1
Format profile : Layer 3
Codec ID : 55
Codec ID/Hint : MP3
Duration : 1 ч. 29 м.
Bit rate mode : Постоянный
Bit rate : 128 Кбит/сек
Channel(s) : 2 канала
Sampling rate : 48,0 КГц
Compression mode : С потерями
Stream size : 81,7 Мбайт (6%)
Alignment : Соединение по промежуткам
Interleave, duration : 40 мс. (1,00 видеокадр)
Interleave, preload duration : 504 мс.
Writing library : LAME3.99r
Encoding settings : -m s -V 4 -q 2 -lowpass 17 -b 128

Скриншот c названием фильма

Скриншоты

Скачать

Скачать торрент! 18 бронзовых девушек Шаолиня / The 18 Bronze Girls of Shaolin / Bronze Girls of Shaolin / 18 Bronzegirls (Чиен Лай-Е / Chien Lai Yeh) [1978, Тайвань, боевые искусства, VHSRip] VO (Прокс)

Как скачивать? · Что такое торрент? · Рейтинг и ограничения

Сайт не распространяет и не хранит электронные версии произведений, а лишь предоставляет доступ к создаваемому пользователями каталогу ссылок на торрент-файлы, которые содержат только списки хеш-сумм

[Профиль] [ЛС]
Показать сообщения:    
Ответить на тему

Текущее время: Сегодня 20:22

Часовой пояс: GMT + 4



Вы не можете начинать темы
Вы не можете отвечать на сообщения
Вы не можете редактировать свои сообщения
Вы не можете удалять свои сообщения
Вы не можете голосовать в опросах
Вы не можете прикреплять файлы к сообщениям
Вы не можете скачивать файлы