Психометрия / Psychometry / The Gifted Hands (Квон Хо Ён / Kwon Ho Young) [2013, Южная Корея, детектив, триллер, драма, мистика, HDRip] MVO STEPonee

Ответить на тему
 
Автор Сообщение

user ®

Стаж: 11 лет

Сообщений: 15151

Пост Пост: #1 от 16-Авг-2013 22:45

[Цитировать]

Психометрия / Psychometry / The Gifted Hands / 사이코메트리 / Sa-i-ko-mai-teu-ri
Год выпуска: 2013
Страна: Южная Корея
Жанр: детектив, триллер, драма, мистика
Продолжительность: 01:48:12
Перевод: любительский (многоголосый закадровый) [студия STEPonee]

Русские субтитры: нет
Режиссёр: Квон Хо Ён (Kwon Ho Young)
В ролях:
  • Ким Кан У (Kim Kang-woo) - детектив Ян Чун Дон
  • Ким Бом (Kim Beom) - художник Чжун
  • Ли Чжун Хёк (Lee Joon Hyeok) - Ян Су
  • Со Хён Чхоль (Seo Hyun Cheol) - лейтенант Го
  • Пак Сон Ун (Park Song Woong) - сержант Чхоль Хён
  • Пак Хёк Квон (Park Hyeok Kwon) - Ги У, ветеринар
  • Есом (Esom) - Сын Ги, подруга Чжуна
  • Ким Ги Чхон (Kim Gi Cheon) - владелец магазина художественных товаров
Описание
Детектив Ян Чун Дон получает задание - расследовать похищение и убийство маленькой девочки. Потеряв в детстве младшего брата, он всегда с особой остротой воспринимает несчастья, происходящие с детьми, а тут получилось так, что ещё одна малышка случайно дала ему ключ к раскрытию этого дела, а потом исчезла сама. Найти её и маньяка-убийцу становится для детектива делом чести. Ян Чун Дон выходит на художника Чжуна, обладающего редким даром - чувствовать воспоминания людей и животных, к которым прикасался, и отражать это с помощью красок. Именно на нём строится всё расследование - ведь однажды Чжун уже нарисовал место преступления на стене дома... ((С) Юрий Балякин)
Сэмпл
Роли озвучивали:
  • Юрий Балякин
  • Дмитрий Кавун
  • Алексей Остапенко
  • Степан Дружинин
  • Елена Рузаева
  • Натиа Макаридзе
Перевод на русский язык: Юрий Балякин и Ольга Белкова

Скриншот c названием фильма

Качество: HDRip (MP4 HDRip-AVC 720p)
Формат: AVI
Видео: XviD, 720x304 (2,35:1), 23,976 к/с, 2315 кбит/с
Аудио: AC3 5.1, 48 кГц, 448 кбит/с

Отчёт MediaInfo

General
Complete name : D:\Projects\Release\STEPonee\_Work\Психометрия. Psychometry\final\Psychometry.2013.HDRip.XviD.AC3.MVO.STEPonee.avi
Format : AVI
Format/Info : Audio Video Interleave
Format profile : OpenDML
File size : 2.10 GiB
Duration : 1h 48mn
Overall bit rate : 2 775 Kbps
Writing application : VirtualDubMod 1.5.10.3 | www.virtualdub-fr.org || (build 2550/release)
Writing library : VirtualDubMod build 2550/release
Video
ID : 0
Format : MPEG-4 Visual
Format profile : Advanced Simple@L5
Format settings, BVOP : 2
Format settings, QPel : No
Format settings, GMC : No warppoints
Format settings, Matrix : Default (H.263)
Codec ID : XVID
Codec ID/Hint : XviD
Duration : 1h 48mn
Bit rate : 2 315 Kbps
Width : 720 pixels
Height : 304 pixels
Display aspect ratio : 2.35:1
Frame rate : 23.976 fps
Color space : YUV
Chroma subsampling : 4:2:0
Bit depth : 8 bits
Scan type : Progressive
Compression mode : Lossy
Bits/(Pixel*Frame) : 0.441
Stream size : 1.75 GiB (83%)
Writing library : XviD 1.2.1 (UTC 2008-12-04)
Audio
ID : 1
Format : AC-3
Format/Info : Audio Coding 3
Mode extension : CM (complete main)
Format settings, Endianness : Big
Codec ID : 2000
Duration : 1h 48mn
Bit rate mode : Constant
Bit rate : 448 Kbps
Channel(s) : 6 channels
Channel positions : Front: L C R, Side: L R, LFE
Sampling rate : 48.0 KHz
Bit depth : 16 bits
Compression mode : Lossy
Stream size : 347 MiB (16%)
Alignment : Split accross interleaves
Interleave, duration : 42 ms (1.00 video frame)
Interleave, preload duration : 500 ms

Скриншоты


Подготовка релиза:
  • Юрий Балякин - обработка звука, монтаж
  • Розалия Хайруллина - обработка звука
  • Дарья Фомичёва - постер
Скачать

Скачать торрент! Психометрия / Psychometry / The Gifted Hands (Квон Хо Ён / Kwon Ho Young) [2013, Южная Корея, детектив, триллер, драма, мистика, HDRip] MVO STEPonee

Как скачивать? · Что такое торрент? · Рейтинг и ограничения

Сайт не распространяет и не хранит электронные версии произведений, а лишь предоставляет доступ к создаваемому пользователями каталогу ссылок на торрент-файлы, которые содержат только списки хеш-сумм

[Профиль] [ЛС]
Показать сообщения:    
Ответить на тему

Текущее время: Сегодня 11:13

Часовой пояс: GMT + 4



Вы не можете начинать темы
Вы не можете отвечать на сообщения
Вы не можете редактировать свои сообщения
Вы не можете удалять свои сообщения
Вы не можете голосовать в опросах
Вы не можете прикреплять файлы к сообщениям
Вы не можете скачивать файлы