Анаконда / Anaconda (Луис Ллоса / Luis Llosa) [1997, США, ужасы, боевик, триллер, приключения, BDRip 1080p] Dub + MVO + 3х AVO (Гаврилов, Живов, Хрусталев) + VO (Антонов) + Sub Rus, Eng + Original Eng

Ответить на тему
 
Автор Сообщение

user ®

Стаж: 7 лет 7 месяцев

Сообщений: 20008

Пост Пост: #1 от 16-Авг-2013 22:45

[Цитировать]

Анаконда / Anaconda
Страна: США
Жанр: ужасы, боевик, триллер, приключения
Год выпуска: 1997
Продолжительность: 01:29:20
Перевод 1: Профессиональный (дублированный)
Перевод 2: Профессиональный (многоголосый закадровый)
Перевод 3: Авторский (одноголосый закадровый) Андрей Гаврилов
Перевод 4: Авторский (одноголосый закадровый) Юрий Живов
Перевод 5: Авторский (одноголосый закадровый) Егор Хрусталев
Перевод 6: Одноголосый закадровый Николай Антонов
Cубтитры: Русские (полные, форсированные), английские
Оригинальная аудиодорожка: английский
Режиссер: Луис Ллоса / Luis Llosa
В ролях: Дженнифер Лопес, Айс Кьюб, Джон Войт, Эрик Штольц, Джонатан Хайд, Оуэн Уилсон, Кари Уорер, Винсент Кастелланос, Дэнни Трехо, Фрэнк Уэлкер
Описание: Команда исследователей отправляется на поиски затерянных индейских племен в самое сердце таинственных джунглей Амазонки. Наслаждаясь пейзажами великой реки, они не подозревают, что их проводник — сумасшедший охотник, помешавшийся на идее поймать гигантскую змею. Никто не верит его рассказам о мистическом хищнике, пока не появляется первая жертва, и их путешествие превращается в борьбу за выживание. Анаконда не ждет охотников, она сама — охотник.
Сэмпл
Релиз:
Тип релиза: BDRip 1080p
Контейнер: MKV
Видео: MPEG-4 AVC, 9117 Кбит/с, 1920x800, 23.976 кадр/с
Аудио 1: Russian, 640 Кбит/сек, 48.0 КГц, 6 каналов, 16 бит, AC3 / Дублированный
Аудио 2: Russian, 192 Кбит/сек, 48.0 КГц, 2 каналов, 16 бит, AC3 / Профессиональный многоголосый
Аудио 3: Russian, 1536 Кбит/сек, 48.0 КГц, 6 каналов, 16 бит, DTS / Авторский одноголосый (Андрей Гаврилов)
Аудио 4: Russian, 1536 Кбит/сек, 48.0 КГц, 6 каналов, 16 бит, DTS / Авторский одноголосый (Юрий Живов)
Аудио 5: Russian, 1536 Кбит/сек, 48.0 КГц, 6 каналов, 16 бит, DTS / Авторский одноголосый (Егор Хрусталев)
Аудио 6: Russian, 192 Кбит/сек, 48.0 КГц, 2 каналов, 16 бит, AC3 / Одноголосый (Николай Антонов)
Аудио 7: English, 1536 Кбит/сек, 48.0 КГц, 6 каналов, 16 бит, DTS

MediaInfo

Общее
Уникальный идентификатор : 207013177263429315572600038565396734558 (0x9BBD49A68A0FF66A9525B4F9BD51E25E)
Полное имя : C:\фильмы\Anaconda.1997.x264.BDRip.(1080p).mkv
Формат : Matroska
Версия формата : Version 4 / Version 2
Размер файла : 10,1 Гбайт
Продолжительность : 1 ч. 29 м.
Общий поток : 16,2 Мбит/сек
Название фильма : Анаконда | Anaconda [1997] -=BDRip (1080p) by 0ptimus=-
Дата кодирования : UTC 2013-08-09 05:48:36
Программа кодирования : mkvmerge v6.1.0 ('Old Devil') built on Mar 2 2013 14:32:37
Библиотека кодирования : libebml v1.3.0 + libmatroska v1.4.0
Видео
Идентификатор : 1
Формат : AVC
Формат/Информация : Advanced Video Codec
Профиль формата : High@L4.1
Параметр CABAC формата : Да
Параметр ReFrames формата : 4 кадра
Идентификатор кодека : V_MPEG4/ISO/AVC
Продолжительность : 1 ч. 29 м.
Битрейт : 9117 Кбит/сек
Ширина : 1920 пикселей
Высота : 800 пикселей
Соотношение сторон : 2,40:1
Режим частоты кадров : Постоянный
Частота кадров : 23,976 кадра/сек
Цветовое пространство : YUV
Субдискретизация насыщенности : 4:2:0
Битовая глубина : 8 бит
Тип развёртки : Прогрессивная
Бит/(Пиксели*Кадры) : 0.248
Размер потока : 5,49 Гбайт (54%)
Заголовок : Rip by 0ptimus
Библиотека кодирования : x264 core 133 r2334 a3ac64b
Настройки программы : cabac=1 / ref=4 / deblock=1:-3:-3 / analyse=0x3:0x113 / me=umh / subme=11 / psy=1 / psy_rd=1.00:0.20 / mixed_ref=1 / me_range=32 / chroma_me=1 / trellis=2 / 8x8dct=1 / cqm=0 / deadzone=21,11 / fast_pskip=0 / chroma_qp_offset=-3 / threads=4 / lookahead_threads=1 / sliced_threads=0 / nr=0 / decimate=0 / interlaced=0 / bluray_compat=0 / constrained_intra=0 / bframes=9 / b_pyramid=2 / b_adapt=2 / b_bias=0 / direct=3 / weightb=1 / open_gop=0 / weightp=2 / keyint=240 / keyint_min=23 / scenecut=40 / intra_refresh=0 / rc_lookahead=40 / rc=2pass / mbtree=0 / bitrate=9117 / ratetol=1.0 / qcomp=0.60 / qpmin=0 / qpmax=69 / qpstep=4 / cplxblur=20.0 / qblur=0.5 / vbv_maxrate=50000 / vbv_bufsize=62500 / nal_hrd=none / ip_ratio=1.40 / pb_ratio=1.30 / aq=1:1.00
Язык : English
Default : Да
Forced : Да
Аудио #1
Идентификатор : 2
Формат : AC-3
Формат/Информация : Audio Coding 3
Расширение режима : CM (complete main)
Параметр Endianness формата : Big
Идентификатор кодека : A_AC3
Продолжительность : 1 ч. 29 м.
Вид битрейта : Постоянный
Битрейт : 640 Кбит/сек
Каналы : 6 каналов
Расположение каналов : Front: L C R, Side: L R, LFE
Частота : 48,0 КГц
Битовая глубина : 16 бит
Метод сжатия : С потерями
Размер потока : 409 Мбайт (4%)
Заголовок : Дублированный AC3 5.1 @ 640 kbps
Язык : Russian
Default : Да
Forced : Да
Аудио #2
Идентификатор : 3
Формат : AC-3
Формат/Информация : Audio Coding 3
Профиль формата : Dolby Digital
Расширение режима : CM (complete main)
Параметр Endianness формата : Big
Идентификатор кодека : A_AC3
Продолжительность : 1 ч. 29 м.
Вид битрейта : Постоянный
Битрейт : 192 Кбит/сек
Каналы : 2 канала
Расположение каналов : Front: L R
Частота : 48,0 КГц
Битовая глубина : 16 бит
Метод сжатия : С потерями
Размер потока : 123 Мбайт (1%)
Заголовок : Многоголосый закадровый AC3 2.0 @ 192 kbps
Язык : Russian
Default : Нет
Forced : Нет
Аудио #3
Идентификатор : 4
Формат : DTS
Формат/Информация : Digital Theater Systems
Режим : 16
Параметр Endianness формата : Big
Идентификатор кодека : A_DTS
Продолжительность : 1 ч. 29 м.
Вид битрейта : Постоянный
Битрейт : 1509 Кбит/сек
Каналы : 6 каналов
Расположение каналов : Front: L C R, Side: L R, LFE
Частота : 48,0 КГц
Битовая глубина : 24 бит
Метод сжатия : С потерями
Размер потока : 964 Мбайт (9%)
Заголовок : Авторский [Андрей Гаврилов] DTS 5.1 @ 1536 kbps
Язык : Russian
Default : Нет
Forced : Нет
Аудио #4
Идентификатор : 5
Формат : DTS
Формат/Информация : Digital Theater Systems
Режим : 16
Параметр Endianness формата : Big
Идентификатор кодека : A_DTS
Продолжительность : 1 ч. 29 м.
Вид битрейта : Постоянный
Битрейт : 1509 Кбит/сек
Каналы : 6 каналов
Расположение каналов : Front: L C R, Side: L R, LFE
Частота : 48,0 КГц
Битовая глубина : 24 бит
Метод сжатия : С потерями
Размер потока : 964 Мбайт (9%)
Заголовок : Авторский [Юрий Живов] DTS 5.1 @ 1536 kbps
Язык : Russian
Default : Нет
Forced : Нет
Аудио #5
Идентификатор : 6
Формат : DTS
Формат/Информация : Digital Theater Systems
Режим : 16
Параметр Endianness формата : Big
Идентификатор кодека : A_DTS
Продолжительность : 1 ч. 29 м.
Вид битрейта : Постоянный
Битрейт : 1509 Кбит/сек
Каналы : 6 каналов
Расположение каналов : Front: L C R, Side: L R, LFE
Частота : 48,0 КГц
Битовая глубина : 24 бит
Метод сжатия : С потерями
Размер потока : 964 Мбайт (9%)
Заголовок : Авторский [Егор Хрусталев] DTS 5.1 @ 1536 kbps
Язык : Russian
Default : Нет
Forced : Нет
Аудио #6
Идентификатор : 7
Формат : AC-3
Формат/Информация : Audio Coding 3
Профиль формата : Dolby Digital
Расширение режима : CM (complete main)
Параметр Endianness формата : Big
Идентификатор кодека : A_AC3
Продолжительность : 1 ч. 29 м.
Вид битрейта : Постоянный
Битрейт : 192 Кбит/сек
Каналы : 2 канала
Расположение каналов : Front: L R
Частота : 48,0 КГц
Битовая глубина : 16 бит
Метод сжатия : С потерями
Размер потока : 123 Мбайт (1%)
Заголовок : Авторский [Николай Антонов] AC3 2.0 @ 192 kbps
Язык : Russian
Default : Нет
Forced : Нет
Аудио #7
Идентификатор : 8
Формат : DTS
Формат/Информация : Digital Theater Systems
Режим : 16
Параметр Endianness формата : Big
Идентификатор кодека : A_DTS
Продолжительность : 1 ч. 29 м.
Вид битрейта : Постоянный
Битрейт : 1509 Кбит/сек
Каналы : 6 каналов
Расположение каналов : Front: L C R, Side: L R, LFE
Частота : 48,0 КГц
Битовая глубина : 24 бит
Метод сжатия : С потерями
Размер потока : 964 Мбайт (9%)
Заголовок : DTS 5.1 @ 1536 kbps
Язык : English
Default : Нет
Forced : Нет
Текст #1
Идентификатор : 9
Формат : UTF-8
Идентификатор кодека : S_TEXT/UTF8
Идентификатор кодека/Информация : UTF-8 Plain Text
Заголовок : Форсированные
Язык : Russian
Default : Нет
Forced : Нет
Текст #2
Идентификатор : 10
Формат : UTF-8
Идентификатор кодека : S_TEXT/UTF8
Идентификатор кодека/Информация : UTF-8 Plain Text
Язык : Russian
Default : Нет
Forced : Нет
Текст #3
Идентификатор : 11
Формат : UTF-8
Идентификатор кодека : S_TEXT/UTF8
Идентификатор кодека/Информация : UTF-8 Plain Text
Язык : English
Default : Нет
Forced : Нет
Меню
00:00:00.000 : en:Start
00:04:32.898 : en:Better Death
00:11:48.166 : en:Jungle Hotel
00:19:30.795 : en:Paul Sarone
00:25:17.516 : en:Fish Story
00:30:51.767 : en:Rap Rap
00:37:24.451 : en:Snake Totem
00:39:08.179 : en:Wild Sounds
00:49:12.783 : en:Wild Boar
00:54:21.341 : en:A Caught Rope
00:59:44.331 : en:Tracheotomy
01:04:41.628 : en:Heading Back
01:11:22.737 : en:Something New
01:15:52.548 : en:Blowing It
01:19:48.450 : en:Treasure Hunt
01:22:53.343 : en:Squeezing Mateo

Скриншоты

Скачать

Скачать торрент!

Как скачивать? · Что такое торрент? · Рейтинг и ограничения

Сайт не распространяет и не хранит электронные версии произведений, а лишь предоставляет доступ к создаваемому пользователями каталогу ссылок на торрент-файлы, которые содержат только списки хеш-сумм

[Профиль] [ЛС]
Показать сообщения:    
Ответить на тему

Текущее время: Сегодня 08:03

Часовой пояс: GMT + 4



Вы не можете начинать темы
Вы не можете отвечать на сообщения
Вы не можете редактировать свои сообщения
Вы не можете удалять свои сообщения
Вы не можете голосовать в опросах
Вы не можете прикреплять файлы к сообщениям
Вы не можете скачивать файлы