Человек-ветер (Хуат Ахметов) [2006, драма, притча, фантасмагория, SATRip]

Ответить на тему
 
Автор Сообщение

user ®

Стаж: 7 лет 7 месяцев

Сообщений: 20008

Пост Пост: #1 от 16-Авг-2013 22:45

[Цитировать]

Человек-ветер
Страна: Россия, Казахстан
Жанр: драма, притча, фантасмагория
Год выпуска: 2006
Продолжительность: 01:34:46
Оригинальная аудиодорожка: русский
Режиссёр: Хуат Ахметов
В ролях: Игорь Ясулович, Куандык Кыстыкбаев, Аянат Есмагамбетова, Ануар Макзумов, Гульнара Дусматова, Фарход Абдуллаев, Ержан Тусупов, Ерболат Оспанкулов, Фархат Абдраимов, Бекжан Турыс, Касым Джакибаев, Турахан Сыдыкова, Жанат Байжанбаев, Динмухаммет Ахимов, Даулет Абдигаппаров, Куман Тастанбеков, Газиза Абдинабиева, Айгуль Иманбаева, Айболат Есенгулов, Болот Акматов, Есболган Отеулинов, Искандер Мыктыбаев, алабай Душман
Описание: В крохотном ауле, затерянном далеко в восточной степи, живет обычная семья - отец, мать, маленький сынишка. Однажды мальчик, играя неподалёку от дома с воздушным змеем, встречает странного человека в черной хламиде, у которого нет лица, - и вскоре смертельно заболевает. Его лечат целительницы, а ночью, во время сильной грозы, в их кошару, пробив крышу, падает странное существо - очень старый худой человек с большими белыми крыльями...
Доп. информация:
Сценарий: Одельша Агишев, Хуат Ахметов
Оператор: Рифкат Ибрагимов
Художник: Нигмат Джураев
Костюмы: Зебо Насырова
Композитор: Юрий Потеенко
Ограничения на просмотр: зрителям, достигшим 14 лет

Качество видео: SATRip
Формат видео: AVI
Видео: 704x384 (1.83:1), 25 fps, XviD build 73, 2020 kbps avg, 0.30 bit/pixel
Аудио: 48 kHz, AC3 Dolby Digital, 2/0 (L,R) ch, 192 kbps

MediaInfo

Полное имя : Chelovek-veter.avi
Формат : AVI
Формат/Информация : Audio Video Interleave
Размер файла : 1,47 Гбайт
Продолжительность : 1 ч. 34 м.
Общий поток : 2222 Кбит/сек
Программа кодирования : VirtualDubMod 1.5.10.3 (build 2550/release)
Библиотека кодирования : VirtualDubMod build 2550/release
Видео
Идентификатор : 0
Формат : MPEG-4 Visual
Профиль формата : Advanced Simple@L5
Параметр BVOP формата : 1
Параметр QPel формата : Нет
Параметр GMC формата : Без точки перехода
Параметр матрицы формата : Выборочная
Идентификатор кодека : DX50
Идентификатор кодека/Подсказка : DivX 5
Продолжительность : 1 ч. 34 м.
Битрейт : 2020 Кбит/сек
Ширина : 704 пикселя
Высота : 384 пикселя
Соотношение сторон : 1,85:1
Частота кадров : 25,000 кадров/сек
Цветовое пространство : YUV
Субдискретизация насыщенности : 4:2:0
Битовая глубина : 8 бит
Тип развёртки : Прогрессивная
Метод сжатия : С потерями
Бит/(Пиксели*Кадры) : 0.299
Размер потока : 1,34 Гбайт (91%)
Библиотека кодирования : XviD 73
Аудио
Идентификатор : 1
Формат : AC-3
Формат/Информация : Audio Coding 3
Расширение режима : CM (complete main)
Параметр Endianness формата : Big
Идентификатор кодека : 2000
Продолжительность : 1 ч. 34 м.
Вид битрейта : Постоянный
Битрейт : 192 Кбит/сек
Каналы : 2 канала
Расположение каналов : Front: L R
Частота : 48,0 КГц
Битовая глубина : 16 бит
Метод сжатия : С потерями
Размер потока : 130 Мбайт (9%)
Выравнивание : Разделение по промежуткам
Продолжительность промежутка : 40 мс. (1,00 видеокадр)
Время предзагрузки промежутка : 500 мс.

Скриншоты

Скачать

Скачать торрент!

Как скачивать? · Что такое торрент? · Рейтинг и ограничения

Сайт не распространяет и не хранит электронные версии произведений, а лишь предоставляет доступ к создаваемому пользователями каталогу ссылок на торрент-файлы, которые содержат только списки хеш-сумм

[Профиль] [ЛС]
Показать сообщения:    
Ответить на тему

Текущее время: Сегодня 11:41

Часовой пояс: GMT + 4



Вы не можете начинать темы
Вы не можете отвечать на сообщения
Вы не можете редактировать свои сообщения
Вы не можете удалять свои сообщения
Вы не можете голосовать в опросах
Вы не можете прикреплять файлы к сообщениям
Вы не можете скачивать файлы