Лучшее предложение / La migliore offerta (Джузеппе Торнаторе / Giuseppe Tornatore) [2013, триллер, мелодрама, драма HDRip-AVC] Dub

Ответить на тему
 
Автор Сообщение

user ®

Стаж: 7 лет 7 месяцев

Сообщений: 20008

Пост Пост: #1 от 16-Авг-2013 22:45

[Цитировать]

Лучшее предложение / La migliore offerta Страна: Италия / Warner Bros., UniCredit Group, AdriAlpe-Media OEG, Business Location Sudtirol Alto Adige, Friuli Venezia Giulia Film Commission
Жанр: триллер, мелодрама, драма
Год выпуска: 2013
Продолжительность: 02:10:58
Перевод: Профессиональный (полное дублирование)
Cубтитры: Нет
Режиссер: Джузеппе Торнаторе / Giuseppe Tornatore
В ролях: Джим Стёрджесс, Дональд Сазерленд, Джеффри Раш, Сильвия Хукс, Филип Джексон, Лия Кебеде, Дермот Краули, Кируна Стамелл, Майлз Ричардсон, Линн Суонсон
Описание: Вергилий Олдман, управляющий директор ведущего аукционного дома. В секретном зале своей виллы, он собрал сотни бесценных картин из разных эпох. Однажды таинственная женщина, скрывающая свою личность, просит продать его антиквариат ее семьи. Но Олдман заинтересован не только предметами старины, его все больше очаровывает сама женщина…

Релиз:
Автор рипа: S.T.A.L.K.E.R.2 (aka Stalker oK)
Сэмпл: http://multi-up.com/894164
Качество: HDRip-AVC [BDRip 720p]
Формат: MKV
Видео кодек: AVC
Аудио кодек: AC3
Видео: 1378 Кбит/сек, 1004*422 (2,35:1), в 24,000 кадр/сек, AVC
Аудио: Russian, 192 Кбит/сек, 48,0 КГц, 16 бит, 2 канала(ов), AC-3

MediaInfo

Общее
Уникальный идентификатор : 252334074861587202403749937684707763827 (0xBDD5C66B6A293E7C803C5D86F45B6673)
Формат : Matroska
Размер файла : 1,44 Гбайт
Продолжительность : 2 ч. 10 м.
Общий поток : 1572 Кбит/сек
Название фильма : La migliore offerta 2013 (Youtracker) (Rip by Stalker oK)
Дата кодирования : UTC 2013-08-15 09:59:56
Программа кодирования : mkvmerge v6.2.0 ('Promised Land') built on Apr 28 2013 12:22:01
Библиотека кодирования : libebml v1.3.0 + libmatroska v1.4.0
Видео
Идентификатор : 1
Формат : AVC
Формат/Информация : Advanced Video Codec
Профиль формата : High@L4.1
Параметр CABAC формата : Да
Параметр ReFrames формата : 11 кадры
Идентификатор кодека : V_MPEG4/ISO/AVC
Продолжительность : 2 ч. 10 м.
Битрейт : 1378 Кбит/сек
Ширина : 1004 пикс.
Высота : 422 пикс.
Соотношение сторон : 2,35:1
Частота кадров : 24,000 кадр/сек
Цветовое пространство : YUV
Подвыборка цветности : 4:2:0
Битовая глубина : 8 бит
Тип развёртки : Прогрессивная
Бит/(Пиксели*Кадры) : 0.136
Размер потока : 1,23 Гбайт (86%)
Библиотека кодирования : x264 core 130 r2273 b3065e6
Настройки программы : cabac=1 / ref=11 / deblock=1:-2:-1 / analyse=0x3:0x133 / me=umh / subme=11 / psy=1 / psy_rd=1.05:0.15 / mixed_ref=1 / me_range=32 / chroma_me=1 / trellis=2 / 8x8dct=1 / cqm=0 / deadzone=21,11 / fast_pskip=0 / chroma_qp_offset=-3 / threads=6 / lookahead_threads=1 / sliced_threads=0 / nr=0 / decimate=0 / interlaced=0 / bluray_compat=0 / constrained_intra=0 / bframes=10 / b_pyramid=2 / b_adapt=2 / b_bias=0 / direct=3 / weightb=1 / open_gop=0 / weightp=2 / keyint=240 / keyint_min=24 / scenecut=40 / intra_refresh=0 / rc_lookahead=60 / rc=2pass / mbtree=1 / bitrate=1378 / ratetol=2.0 / qcomp=0.70 / qpmin=0 / qpmax=69 / qpstep=4 / cplxblur=20.0 / qblur=0.5 / vbv_maxrate=50000 / vbv_bufsize=62500 / nal_hrd=none / ip_ratio=1.40 / aq=1:1.00
Коэффициенты матрицы : BT.709-5, BT.1361, IEC 61966-2-4 709, SMPTE RP177
Аудио
Идентификатор : 2
Формат : AC-3
Формат/Информация : Audio Coding 3
Расширение режима : CM (complete main)
Идентификатор кодека : A_AC3
Продолжительность : 2 ч. 10 м.
Вид битрейта : Постоянный
Битрейт : 192 Кбит/сек
Канал(ы) : 2 канала(ов)
Расположение каналов : Front: L R
Частота : 48,0 КГц
Битовая глубина : 16 бит
Метод сжатия : С потерями
Размер потока : 180 Мбайт (12%)
Заголовок : Dub
Язык : Russian

Log

-[NoImage] x264 [info]: frame I:1960 Avg QP:14.95 size: 80737
-[NoImage] x264 [info]: frame P:40898 Avg QP:18.83 size: 16569
-[NoImage] x264 [info]: frame B:145734 Avg QP:22.45 size: 3552

Скриншоты

Скачать

Скачать торрент!

Как скачивать? · Что такое торрент? · Рейтинг и ограничения

Сайт не распространяет и не хранит электронные версии произведений, а лишь предоставляет доступ к создаваемому пользователями каталогу ссылок на торрент-файлы, которые содержат только списки хеш-сумм

[Профиль] [ЛС]
Показать сообщения:    
Ответить на тему

Текущее время: Сегодня 00:00

Часовой пояс: GMT + 4



Вы не можете начинать темы
Вы не можете отвечать на сообщения
Вы не можете редактировать свои сообщения
Вы не можете удалять свои сообщения
Вы не можете голосовать в опросах
Вы не можете прикреплять файлы к сообщениям
Вы не можете скачивать файлы