Железный человек 3 / Iron Man 3 (Шэйн Блэк / Shane Black) [2013, Фантастика, боевик, приключения, WEB-DLRip-AVC] Dub

Ответить на тему
 
Автор Сообщение

user ®

Стаж: 7 лет 7 месяцев

Сообщений: 20008

Пост Пост: #1 от 16-Авг-2013 22:45

[Цитировать]

Железный человек 3 / Iron Man 3
«Герой будет сражен»
Страна: США, Китай / Fairview Entertainment, Marvel Studios Inc., Noble Media, Outlaw Sinema, Paramount Pictures
Жанр: фантастика, боевик, приключения
Год выпуска: 2013
Продолжительность: 02:11:18
Перевод: Профессиональный (полное дублирование)
Cубтитры: Нет
Режиссер: Шэйн Блэк / Shane Black
В ролях: Роберт Дауни мл., Гвинет Пэлтроу, Дон Чидл, Гай Пирс, Бен Кингсли, Ребекка Холл, Пол Беттани, Джон Фавро, Уильям Сэдлер, Джеймс Бэдж Дэйл
Описание: Когда мир Старка рушится на его глазах по вине неизвестных противников, Тони жаждет найти виновных и свести с ними счеты. Оказавшись в безвыходной ситуации, Старк может рассчитывать только на себя и свою изобретательность, чтобы защитить тех, кто ему дорог. Это становится настоящим испытанием для героя, которому придется не только сражаться с коварным врагом, но и разобраться в себе, чтобы найти ответ на вопрос, который давно его тревожит: что важнее — человек или костюм?
|
Релиз:
Автор рипа: S.T.A.L.K.E.R.2 (aka Stalker oK)
Сэмпл: http://multi-up.com/894463
Качество: WEB-DLRip-AVC [IRON_MAN3_1080p_BLUEBIRD]
Формат: MKV
Видео кодек: AVC
Аудио кодек: AC3
Видео: 1202 Кбит/сек, 958*398 (2,40:1), в 23,976 кадр/сек, AVC
Аудио: Russian, 384 Кбит/сек, 48,0 КГц, 16 бит, 6 канала(ов), AC-3 (iTunes Russia)

MediaInfo

Общее
Уникальный идентификатор : 202572451583633284182465825316920606153 (0x986608F877365232AFD46FD28A07BDC9)
Полное имя : H:\жч3\Zheleznyj_chelovek_3_2013_WEB-DLRip_AVC_Dub__stalkerok.mkv
Формат : Matroska
Размер файла : 1,45 Гбайт
Продолжительность : 2 ч. 11 м.
Общий поток : 1586 Кбит/сек
Название фильма : Iron Man 3 2013 (Youtracker) (Rip by Stalker oK)
Дата кодирования : UTC 2013-08-16 13:14:54
Программа кодирования : mkvmerge v6.2.0 ('Promised Land') built on Apr 28 2013 12:22:01
Библиотека кодирования : libebml v1.3.0 + libmatroska v1.4.0
Видео
Идентификатор : 1
Формат : AVC
Формат/Информация : Advanced Video Codec
Профиль формата : High@L4.1
Параметр CABAC формата : Да
Параметр ReFrames формата : 9 кадры
Идентификатор кодека : V_MPEG4/ISO/AVC
Продолжительность : 2 ч. 11 м.
Битрейт : 1202 Кбит/сек
Ширина : 958 пикс.
Высота : 398 пикс.
Соотношение сторон : 2,40:1
Частота кадров : 23,976 кадр/сек
Цветовое пространство : YUV
Подвыборка цветности : 4:2:0
Битовая глубина : 8 бит
Тип развёртки : Прогрессивная
Бит/(Пиксели*Кадры) : 0.131
Размер потока : 1,07 Гбайт (74%)
Библиотека кодирования : x264 core 130 r2273 b3065e6
Настройки программы : cabac=1 / ref=9 / deblock=1:-2:-1 / analyse=0x3:0x133 / me=umh / subme=11 / psy=1 / psy_rd=1.00:0.15 / mixed_ref=1 / me_range=32 / chroma_me=1 / trellis=2 / 8x8dct=1 / cqm=0 / deadzone=21,11 / fast_pskip=0 / chroma_qp_offset=-3 / threads=6 / lookahead_threads=1 / sliced_threads=0 / nr=0 / decimate=0 / interlaced=0 / bluray_compat=0 / constrained_intra=0 / bframes=10 / b_pyramid=2 / b_adapt=2 / b_bias=0 / direct=3 / weightb=1 / open_gop=0 / weightp=2 / keyint=240 / keyint_min=23 / scenecut=40 / intra_refresh=0 / rc_lookahead=70 / rc=2pass / mbtree=1 / bitrate=1202 / ratetol=2.0 / qcomp=0.70 / qpmin=0 / qpmax=69 / qpstep=4 / cplxblur=20.0 / qblur=0.5 / vbv_maxrate=50000 / vbv_bufsize=62500 / nal_hrd=none / ip_ratio=1.50 / aq=1:1.00
Коэффициенты матрицы : BT.709-5, BT.1361, IEC 61966-2-4 709, SMPTE RP177
Аудио
Идентификатор : 2
Формат : AC-3
Формат/Информация : Audio Coding 3
Расширение режима : CM (complete main)
Идентификатор кодека : A_AC3
Продолжительность : 2 ч. 11 м.
Вид битрейта : Постоянный
Битрейт : 384 Кбит/сек
Канал(ы) : 6 канала(ов)
Расположение каналов : Front: L C R, Side: L R, LFE
Частота : 48,0 КГц
Битовая глубина : 16 бит
Метод сжатия : С потерями
Размер потока : 361 Мбайт (24%)
Заголовок : Dub (iTunes Russia)
Язык : Russian

Log

-[NoImage] x264 [info]: frame I:1955 Avg QP:14.31 size: 41036
-[NoImage] x264 [info]: frame P:53727 Avg QP:18.97 size: 11145
-[NoImage] x264 [info]: frame B:133202 Avg QP:20.14 size: 3790

Скриншоты

Скачать

Скачать торрент!

Как скачивать? · Что такое торрент? · Рейтинг и ограничения

Сайт не распространяет и не хранит электронные версии произведений, а лишь предоставляет доступ к создаваемому пользователями каталогу ссылок на торрент-файлы, которые содержат только списки хеш-сумм

[Профиль] [ЛС]
Показать сообщения:    
Ответить на тему

Текущее время: Сегодня 17:32

Часовой пояс: GMT + 4



Вы не можете начинать темы
Вы не можете отвечать на сообщения
Вы не можете редактировать свои сообщения
Вы не можете удалять свои сообщения
Вы не можете голосовать в опросах
Вы не можете прикреплять файлы к сообщениям
Вы не можете скачивать файлы