Не могу дождаться / Can't Hardly Wait (Гарри Элфонт / Harry Elfont, Дебора Каплан / Deborah Kaplan) [1998, США, Комедия, BDRemux 1080p] 2x DVO + UKR + ENG + Subs (rus, eng)

Ответить на тему
 
Автор Сообщение

user ®

Стаж: 7 лет 7 месяцев

Сообщений: 20008

Пост Пост: #1 от 16-Авг-2013 09:15

[Цитировать]

Не могу дождаться / Can't Hardly Wait- Страна: США
Студия: Columbia Pictures
Жанр: Комедия
Год выпуска: 1998
Продолжительность: 01:40:31-Перевод 1: Профессиональный (двухголосый закадровый)
Перевод 2: Профессиональный (двухголосый закадровый) - Студия Элром
Перевод 3: Профессиональный (многоголосый закадровый) - украинский
Cубтитры: русские
Оригинальная аудиодорожка: английский-Режиссер: Гарри Элфонт / Harry Elfont, Дебора Каплан / Deborah Kaplan
В ролях: Дженнифер Лав Хьюитт, Итэн Эмбри, Чарли Корсмо, Лорен Эмброуз, Питер Фачинелли, Сет Грин, Мишель Брукхерст, Александр Мартин, Эрик Палладино, Чэннон Роу-Описание: Выпускной вечер в полном разгаре. Самое время безмятежно веселиться, вспоминая радостную пору ученичества. Но Престон Майерс настроен очень серьезно.
Ведь утром он уезжает из города и, возможно, больше никогда не увидит красавицу Аманду, королеву бала и его сердца. Четыре года юноша скрывал свое чувство. Грандиозная вечеринка — последний шанс наверстать упущенное.
Более подходящего места просто не найти, ведь, как известно, ночи созданы для любви…-
-Тип релиза: BDRemux 1080p
Контейнер: MKV
Видео: AVC, 1920x1080, 23.9 Mbps, 23.976 fps
Аудио 1: AC3, 2.0ch, 192 Kbps, 48000 Hz - RUS DVO
Аудио 2: AC3, 2.0ch, 192 Kbps, 48000 Hz - RUS DVO - Студия Элром
Аудио 3: AC3, 2.0ch, 192 Kbps, 48000 Hz - UKR MVO
Аудио 4: DTS-HD, 5.1ch, 2263Kbps, 48000 Hz (core 5.1ch, 1509Kbps, 48000 Hz) - ENG
Формат субтитров: softsub (SRT) - русские, английские
-

Cкриншоты


Резервные скриншоты




-

MediaInfo

Код:
Format : Matroska
Format version : Version 4 / Version 2
File size : 18.8 GiB
Duration : 1h 40mn
Overall bit rate mode : Variable
Overall bit rate : 26.8 Mbps
Movie name : Не могу дождаться / Can't Hardly Wait (1998) BDRemux 1080p - RG Torrents.ru
Encoded date : UTC 2013-08-14 22:13:31
Writing application : mkvmerge v6.3.0 ('You can't stop me!') built on Jun 28 2013 20:09:41
Writing library : libebml v1.3.0 + libmatroska v1.4.0
Attachment : Yes
Video
ID : 1
Format : AVC
Format/Info : Advanced Video Codec
Format profile : High@L4.1
Format settings, CABAC : Yes
Format settings, ReFrames : 2 frames
Codec ID : V_MPEG4/ISO/AVC
Duration : 1h 40mn
Bit rate mode : Variable
Bit rate : 24.1 Mbps
Width : 1 920 pixels
Height : 1 080 pixels
Display aspect ratio : 16:9
Frame rate : 23.976 fps
Color space : YUV
Chroma subsampling : 4:2:0
Bit depth : 8 bits
Scan type : Progressive
Bits/(Pixel*Frame) : 0.485
Stream size : 16.9 GiB (90%)
Title : RG Torrents.ru
Language : English
Default : Yes
Forced : No
Audio #1
ID : 2
Format : AC-3
Format/Info : Audio Coding 3
Mode extension : CM (complete main)
Codec ID : A_AC3
Duration : 1h 40mn
Bit rate mode : Constant
Bit rate : 192 Kbps
Channel(s) : 2 channels
Channel positions : Front: L R
Sampling rate : 48.0 KHz
Bit depth : 16 bits
Compression mode : Lossy
Stream size : 138 MiB (1%)
Title : AC3 2.0 192Kbps DVO
Language : Russian
Default : Yes
Forced : No
Audio #2
ID : 3
Format : AC-3
Format/Info : Audio Coding 3
Mode extension : CM (complete main)
Codec ID : A_AC3
Duration : 1h 40mn
Bit rate mode : Constant
Bit rate : 192 Kbps
Channel(s) : 2 channels
Channel positions : Front: L R
Sampling rate : 48.0 KHz
Bit depth : 16 bits
Compression mode : Lossy
Stream size : 138 MiB (1%)
Title : AC3 2.0 192Kbps DVO - Студия Элром
Language : Russian
Default : No
Forced : No
Audio #3
ID : 4
Format : AC-3
Format/Info : Audio Coding 3
Mode extension : CM (complete main)
Codec ID : A_AC3
Duration : 1h 40mn
Bit rate mode : Constant
Bit rate : 192 Kbps
Channel(s) : 2 channels
Channel positions : Front: L R
Sampling rate : 48.0 KHz
Bit depth : 16 bits
Compression mode : Lossy
Stream size : 138 MiB (1%)
Title : AC3 2.0 192Kbps
Language : Ukrainian
Default : No
Forced : No
Audio #4
ID : 5
Format : DTS
Format/Info : Digital Theater Systems
Format profile : MA / Core
Codec ID : A_DTS
Duration : 1h 40mn
Bit rate mode : Variable
Bit rate : 1 561 Kbps / 1 510 Kbps
Channel(s) : 6 channels
Channel positions : Front: L C R, Side: L R, LFE
Sampling rate : 48.0 KHz
Bit depth : 16 bits
Compression mode : Lossless / Lossy
Title : DTS-HD 5.1 2263Kbps
Language : English
Default : No
Forced : No
Text #1
ID : 6
Format : UTF-8
Codec ID : S_TEXT/UTF8
Codec ID/Info : UTF-8 Plain Text
Language : Russian
Default : No
Forced : No
Text #2
ID : 7
Format : UTF-8
Codec ID : S_TEXT/UTF8
Codec ID/Info : UTF-8 Plain Text
Language : English
Default : No
Forced : No
Menu
00:00:00.000 : en:Chapter 01
00:05:57.398 : en:Chapter 02
00:09:45.501 : en:Chapter 03
00:16:42.042 : en:Chapter 04
00:24:03.817 : en:Chapter 05
00:29:58.338 : en:Chapter 06
00:32:41.834 : en:Chapter 07
00:44:37.216 : en:Chapter 08
00:49:15.369 : en:Chapter 09
00:53:47.098 : en:Chapter 10
01:00:12.984 : en:Chapter 11
01:06:26.273 : en:Chapter 12
01:12:30.720 : en:Chapter 13
01:17:32.189 : en:Chapter 14
01:23:57.032 : en:Chapter 15
01:29:26.611 : en:Chapter 16
Скачать

Скачать торрент!

Как скачивать? · Что такое торрент? · Рейтинг и ограничения

Сайт не распространяет и не хранит электронные версии произведений, а лишь предоставляет доступ к создаваемому пользователями каталогу ссылок на торрент-файлы, которые содержат только списки хеш-сумм

[Профиль] [ЛС]
Показать сообщения:    
Ответить на тему

Текущее время: Сегодня 04:05

Часовой пояс: GMT + 4



Вы не можете начинать темы
Вы не можете отвечать на сообщения
Вы не можете редактировать свои сообщения
Вы не можете удалять свои сообщения
Вы не можете голосовать в опросах
Вы не можете прикреплять файлы к сообщениям
Вы не можете скачивать файлы