Тяжкие телесные повреждения / Grievous Bodily Harm (Марк Джоффе / Mark Joffe) [1988, Австралия, криминал драма, триллер, HDTV 1080i] DVO (НТВ+)

Ответить на тему
 
Автор Сообщение

user ®

Стаж: 7 лет 7 месяцев

Сообщений: 20008

Пост Пост: #1 от 16-Авг-2013 09:15

[Цитировать]

Тяжкие телесные повреждения / Grievous Bodily Harm
Страна: Австралия
Студия: Australian Film Commission, The, FGH, International Film Management
Жанр: криминал драма, триллер
Год выпуска: 1988
Продолжительность: 01:32:40
Перевод: Профессиональный (двухголосый закадровый) НТВ+
Cубтитры: нет
Оригинальная аудиодорожка: нет
Режиссер: Марк Джоффе / Mark Joffe
В ролях: Колин Фрилз (Том Стюарт), Бруно Лоуренс (детектив Рей Берч), Джон Уотерс (Моррис Мартин), Джой Белл (Клодин), Ким Джинджелл (Мик)
Описание: Журналист Том Стюарт и детектив Рей Берч ищут преподавателя Мартина, страдающего расстройством психики, одержимого мыслью о том, что его пропавшая без вести жена жива.
[
Тип релиза: HDTV 1080i
Контейнер: TS
Видео: AVC 1920x1080 (16:9)) 25.0fps Bit rate 5597Kbps
Аудио: MP2 48.0 KHz 2ch. 192kbps rus

MediaInfo

General
ID : C
Complete name : E:\torrent\Tyazhkie telesnye povrezhdeniya_HDTV 1080i.ts
Format : MPEG-TS
File size : 3.94 GiB
Duration : 1h 32mn
Overall bit rate : 6 092 Kbps
Video
ID : 1606 (0x646)
Menu ID : 606 (0x25E)
Format : AVC
Format/Info : Advanced Video Codec
Format profile : High@L4.0
Format settings, CABAC : Yes
Format settings, ReFrames : 3 frames
Format settings, GOP : M=1, N=64
Duration : 1h 32mn
Bit rate : 5 597 Kbps
Width : 1 920 pixels
Height : 1 080 pixels
Display aspect ratio : 16:9
Frame rate : 25.000 fps
Standard : Component
Color space : YUV
Chroma subsampling : 4:2:0
Bit depth : 8 bits
Scan type : Interlaced
Scan order : Top Field First
Bits/(Pixel*Frame) : 0.108
Stream size : 3.62 GiB (92%)
Color primaries : BT.709-5, BT.1361, IEC 61966-2-4, SMPTE RP177
Transfer characteristics : BT.709-5, BT.1361
Matrix coefficients : BT.709-5, BT.1361, IEC 61966-2-4 709, SMPTE RP177
Audio
ID : 2606 (0xA2E)
Menu ID : 606 (0x25E)
Format : MPEG Audio
Format version : Version 1
Format profile : Layer 2
Duration : 1h 32mn
Bit rate mode : Constant
Bit rate : 192 Kbps
Channel(s) : 2 channels
Sampling rate : 48.0 KHz
Video delay : 122ms
Stream size : 127 MiB (3%)
Language : Russian

Скриншот с названием фильма

Скриншоты

Скачать

Скачать торрент!

Как скачивать? · Что такое торрент? · Рейтинг и ограничения

Сайт не распространяет и не хранит электронные версии произведений, а лишь предоставляет доступ к создаваемому пользователями каталогу ссылок на торрент-файлы, которые содержат только списки хеш-сумм

[Профиль] [ЛС]
Показать сообщения:    
Ответить на тему

Текущее время: Сегодня 00:07

Часовой пояс: GMT + 4



Вы не можете начинать темы
Вы не можете отвечать на сообщения
Вы не можете редактировать свои сообщения
Вы не можете удалять свои сообщения
Вы не можете голосовать в опросах
Вы не можете прикреплять файлы к сообщениям
Вы не можете скачивать файлы