Иштар / Ishtar (Элейн Мей / Elaine May) [1987, США, Комедия, приключения, музыка, BDRemux 1080p] [Режиссёрская версия / Director's Cut] DVO (НТВ+) + Sub Eng + Original Eng

Ответить на тему
 
Автор Сообщение

user ®

Стаж: 7 лет 7 месяцев

Сообщений: 20008

Пост Пост: #1 от 16-Авг-2013 09:15

[Цитировать]

Иштар / Ishtar
-
Страна: США
Студия: Columbia Pictures
Жанр: Комедия, приключения, музыка
Год выпуска: 1987
Продолжительность: 01:44:57 (Режиссёрская версия)
Перевод: Профессиональный (двухголосый закадровый) НТВ+
Cубтитры: английские (2 вида)
Оригинальная аудиодорожка: английский
-
Режиссер: Элейн Мей / Elaine May
Сценарий: Элейн Мей
Проюседр: Уоррен Битти, Дэвид Ли Маклеод, Найджел Вулл
Оператор: Витторио Стораро
Композитор: Дейв Грузин
-
В ролях: Уоррен Битти, Дастин Хоффман, Изабель Аджани, Чарльз Гродин, Джек Уэстон, Тесс Харпер, Кэрол Кейн, Фиджад Хагиб, Дэвид Маргулис, Аарон Ипале, Роуз Аррик, Джули Гарфилд, Кристин Роуз, Роберт В. Джиролами, Эйб Кролл, Ханна Кролл
Описание: Двое неудачливых песенников-исполнителей втягиваются в международную интригу в Северной Африке, в районе выдуманного города Иштар, оказавшись в результате всех приключений на слепом верблюде в пустыне Сахара, где их не оставляют в покое торговцы оружием, повстанцы и солдаты правительственных войск. Но никакие передряги не могут отвлечь друзей от самого главного для них — покорения музыкального Олимпа.
Мировая Премьера: 15 мая 1987
Бюджет: $55 000 000
Сборы в Мире: $14 375 181
IMDB: http://www.imdb.com/title/tt0093278/?ref_=fn_al_tt_1
Kinopoisk: http://www.kinopoisk.ru/film/4519/
Сэмпл: http://rusfolder.ru/37627868
-
Тип релиза: BDRemux 1080p
Контейнер: MKV
Видео: MPEG-4 AVC Video / 27919 kbps / 1080p / 23.976 fps / 16:9 / High Profile 4.1
Аудио: Russian / Dolby Digital Audio / 2.0 / 48 kHz / 192 kbps (двухголосый закадровый, НТВ+)
Аудио 2: English / DTS-HD Master Audio / 5.1 / 48 kHz / 3675 kbps / 24-bit (DTS Core: 5.1 / 48 kHz / 1509 kbps / 24-bit)
Аудио 3: Russian / Dolby Digital Audio / 2.0 / 48 kHz / 192 kbps (комментарии)
-

MediaInfo

Общее
Уникальный идентификатор : 252733489196081234992146571578694922247 (0xBE22B31111F67A54B0A342C0F5077007)
Полное имя : E:\Художественные Фильмы\Ishtar.1987.Directors.Cut.BD-Remux.1080p.mkv
Формат : Matroska
Версия формата : Version 4 / Version 2
Размер файла : 23,5 Гбайт
Продолжительность : 1 ч. 44 м.
Режим общего битрейта : Переменный
Общий поток : 32,0 Мбит/сек
Дата кодирования : UTC 2013-08-10 20:20:24
Программа кодирования : mkvmerge v6.0.0 ('Coming Up For Air') built on Jan 20 2013 09:52:00
Библиотека кодирования : libebml v1.3.0 + libmatroska v1.4.0
Видео
Идентификатор : 1
Формат : AVC
Формат/Информация : Advanced Video Codec
Профиль формата : High@L4.1
Параметр CABAC формата : Да
Параметр ReFrames формата : 2 кадра
Параметр GOP формата : M=1, N=10
Идентификатор кодека : V_MPEG4/ISO/AVC
Продолжительность : 1 ч. 44 м.
Вид битрейта : Переменный
Ширина : 1920 пикселей
Высота : 1080 пикселей
Соотношение сторон : 16:9
Режим частоты кадров : Постоянный
Частота кадров : 23,976 кадра/сек
Цветовое пространство : YUV
Субдискретизация насыщенности : 4:2:0
Битовая глубина : 8 бит
Тип развёртки : Прогрессивная
Default : Да
Forced : Нет
Аудио #1
Идентификатор : 2
Формат : AC-3
Формат/Информация : Audio Coding 3
Расширение режима : CM (complete main)
Параметр Endianness формата : Big
Идентификатор кодека : A_AC3
Продолжительность : 1 ч. 44 м.
Вид битрейта : Постоянный
Битрейт : 192 Кбит/сек
Каналы : 2 канала
Расположение каналов : Front: L R
Частота : 48,0 КГц
Битовая глубина : 16 бит
Метод сжатия : С потерями
Размер потока : 144 Мбайт (1%)
Заголовок : НТВ+
Язык : Russian
Default : Да
Forced : Нет
Аудио #2
Идентификатор : 3
Формат : DTS
Формат/Информация : Digital Theater Systems
Профиль формата : MA / Core
Режим : 16
Параметр Endianness формата : Big
Идентификатор кодека : A_DTS
Продолжительность : 1 ч. 44 м.
Вид битрейта : Переменный
Битрейт : Неизвестно / 1509 Кбит/сек
Каналы : 6 каналов
Расположение каналов : Front: L C R, Side: L R, LFE
Частота : 48,0 КГц
Битовая глубина : 24 бит
Метод сжатия : Без потерь / Lossy
Заголовок : Оригинал
Язык : English
Default : Нет
Forced : Нет
Аудио #3
Идентификатор : 4
Формат : AC-3
Формат/Информация : Audio Coding 3
Расширение режима : CM (complete main)
Параметр Endianness формата : Big
Идентификатор кодека : A_AC3
Продолжительность : 1 ч. 44 м.
Вид битрейта : Постоянный
Битрейт : 192 Кбит/сек
Каналы : 2 канала
Расположение каналов : Front: L R
Частота : 48,0 КГц
Битовая глубина : 16 бит
Метод сжатия : С потерями
Размер потока : 144 Мбайт (1%)
Заголовок : комментарии
Язык : English
Default : Нет
Forced : Нет
Текст #1
Идентификатор : 5
Формат : PGS
Режим смешивания : zlib
Идентификатор кодека : S_HDMV/PGS
Идентификатор кодека/Информация : The same subtitle format used on BDs/HD-DVDs
Язык : English
Default : Да
Forced : Нет
Текст #2
Идентификатор : 6
Формат : PGS
Режим смешивания : zlib
Идентификатор кодека : S_HDMV/PGS
Идентификатор кодека/Информация : The same subtitle format used on BDs/HD-DVDs
Язык : English
Default : Нет
Forced : Нет

Скриншоты

Скачать

Скачать торрент!

Как скачивать? · Что такое торрент? · Рейтинг и ограничения

Сайт не распространяет и не хранит электронные версии произведений, а лишь предоставляет доступ к создаваемому пользователями каталогу ссылок на торрент-файлы, которые содержат только списки хеш-сумм

[Профиль] [ЛС]
Показать сообщения:    
Ответить на тему

Текущее время: Сегодня 21:55

Часовой пояс: GMT + 4



Вы не можете начинать темы
Вы не можете отвечать на сообщения
Вы не можете редактировать свои сообщения
Вы не можете удалять свои сообщения
Вы не можете голосовать в опросах
Вы не можете прикреплять файлы к сообщениям
Вы не можете скачивать файлы