Большая свадьба / The Big Wedding (Джастин Закэм / Justin Zackham) [2013, Комедия, BDRip-AVC] Dub (Blu-ray RUS) + Original (Eng) + Sub (eng)

Ответить на тему
 
Автор Сообщение

user ®

Стаж: 7 лет 7 месяцев

Сообщений: 20008

Пост Пост: #1 от 16-Авг-2013 00:55

[Цитировать]

Большая свадьба / The Big Wedding-- Страна: США / Two Ton Films, Millennium Films
Жанр: Комедия
Год выпуска: 2013
Продолжительность: 01:29:32-Перевод: Профессиональный (дублированный) лицензия
Cубтитры: английские
Формат субтитров: softsub (SRT)
Оригинальная аудиодорожка: английский-Режиссер: Джастин Закэм / Justin Zackham
В ролях: Аманда Сайфред, Роберт Де Ниро, Кэтрин Хейгл, Робин Уильямс, Тофер Грейс, Сьюзен Сарандон, Дайан Китон, Бен Барнс, Кристин Эберсоул, Марк Блукас
Описание: История о современной семье, пытающейся пережить выходные свадебного торжества, которые могут обернуться полным крахом для них. К удивлению своих детей и друзей давно разведенные Дон и Элли Гриффин вынуждены притворяться счастливыми ради свадьбы своего приемного сына, после того как его ультраконсервативная биологическая мать неожиданно решает пролететь через пол мира, чтобы принять участие в этом торжестве…- -Релиз от:
Автор рипа: potroks-Качество видео: BDRip-AVC [The.Big.Wedding.2013.1080p.BluRay.AVC.DTS-HD.MA.5.1-PublicHD]
Формат видео: MKV
Видео: х.264, 1056x440 (2,40:1), 23,976 fps, 2446 Кbps, 0.220 bit/pixel
Аудио#1: 48 kHz, AC3 Dolby Digital, 3/2 (L,C,R,l,r) + LFE ch, 448.00 kbps | RUS
Аудио#2: 48 kHz, AC3 Dolby Digital, 3/2 (L,C,R,l,r) + LFE ch, 448.00 kbps | ENG

MediaInfo

Общее
Уникальный идентификатор : 170547162144958517258765259254255858766 (0x804E304B669751CE87E989A384E8344E)
Полное имя : Bol'shaja.Svad'ba.2013.DUAL.BDRip.x264.-HELLYWOOD.mkv
Формат : Matroska
Версия формата : Version 2
Размер файла : 2,09 Гбайт
Продолжительность : 1 ч. 29 м.
Общий поток : 3340 Кбит/сек
Название фильма : HELLYWOOD - rip by potroks
Дата кодирования : UTC 2013-08-13 17:36:07
Программа кодирования : mkvmerge v5.9.0 ('On The Loose') built on Dec 15 2012 16:39:58
Библиотека кодирования : libebml v1.3.0 + libmatroska v1.4.0
Видео
Идентификатор : 1
Формат : AVC
Формат/Информация : Advanced Video Codec
Профиль формата : High@L4.1
Параметр CABAC формата : Да
Параметр ReFrames формата : 10 кадров
Идентификатор кодека : V_MPEG4/ISO/AVC
Продолжительность : 1 ч. 29 м.
Битрейт : 2446 Кбит/сек
Ширина : 1056 пикселей
Высота : 440 пикселей
Соотношение сторон : 2,40:1
Режим частоты кадров : Постоянный
Частота кадров : 23,976 кадра/сек
Цветовое пространство : YUV
Субдискретизация насыщенности : 4:2:0
Битовая глубина : 8 бит
Тип развёртки : Прогрессивная
Бит/(Пиксели*Кадры) : 0.220
Размер потока : 1,49 Гбайт (71%)
Заголовок : The Big Wedding
Библиотека кодирования : x264 core 130 r2273 b3065e6
Настройки программы : cabac=1 / ref=10 / deblock=1:-2:-2 / analyse=0x3:0x133 / me=umh / subme=11 / psy=1 / psy_rd=1.02:0.02 / mixed_ref=1 / me_range=32 / chroma_me=1 / trellis=2 / 8x8dct=1 / cqm=0 / deadzone=21,11 / fast_pskip=0 / chroma_qp_offset=-3 / threads=9 / lookahead_threads=2 / sliced_threads=0 / nr=0 / decimate=1 / interlaced=0 / bluray_compat=0 / constrained_intra=0 / bframes=11 / b_pyramid=2 / b_adapt=2 / b_bias=0 / direct=3 / weightb=1 / open_gop=0 / weightp=2 / keyint=240 / keyint_min=23 / scenecut=40 / intra_refresh=0 / rc_lookahead=150 / rc=2pass / mbtree=1 / bitrate=2446 / ratetol=1.0 / qcomp=0.70 / qpmin=0 / qpmax=69 / qpstep=4 / cplxblur=20.0 / qblur=0.5 / vbv_maxrate=20000 / vbv_bufsize=20000 / nal_hrd=none / ip_ratio=1.35 / aq=1:0.70
Язык : English
Default : Да
Forced : Нет
Аудио #1
Идентификатор : 2
Формат : AC-3
Формат/Информация : Audio Coding 3
Расширение режима : CM (complete main)
Параметр Endianness формата : Big
Идентификатор кодека : A_AC3
Продолжительность : 1 ч. 29 м.
Вид битрейта : Постоянный
Битрейт : 448 Кбит/сек
Каналы : 6 каналов
Расположение каналов : Front: L C R, Side: L R, LFE
Частота : 48,0 КГц
Битовая глубина : 16 бит
Метод сжатия : С потерями
Размер потока : 287 Мбайт (13%)
Заголовок : Dub | DD 5.1 @ 448 kbps
Язык : Russian
Default : Да
Forced : Да
Аудио #2
Идентификатор : 3
Формат : AC-3
Формат/Информация : Audio Coding 3
Расширение режима : CM (complete main)
Параметр Endianness формата : Big
Идентификатор кодека : A_AC3
Продолжительность : 1 ч. 29 м.
Вид битрейта : Постоянный
Битрейт : 448 Кбит/сек
Каналы : 5 каналов
Расположение каналов : Front: L C R, Side: L R
Частота : 48,0 КГц
Битовая глубина : 16 бит
Метод сжатия : С потерями
Размер потока : 287 Мбайт (13%)
Заголовок : Original | DD 5.1 @ 448 kbps
Язык : English
Default : Нет
Forced : Нет
Текст
Идентификатор : 4
Формат : UTF-8
Идентификатор кодека : S_TEXT/UTF8
Идентификатор кодека/Информация : UTF-8 Plain Text
Язык : English
Default : Нет
Forced : Нет
Меню
00:00:00.000 : en:00:00:00.000
00:07:27.739 : en:00:07:27.739
00:12:42.887 : en:00:12:42.887
00:20:57.214 : en:00:20:57.214
00:28:32.669 : en:00:28:32.669
00:36:18.468 : en:00:36:18.468
00:43:38.366 : en:00:43:38.366
00:51:07.982 : en:00:51:07.982
00:59:10.464 : en:00:59:10.464
01:08:03.246 : en:01:08:03.246
01:16:01.056 : en:01:16:01.056
01:22:41.999 : en:01:22:41.999

log@x.264

x264 [info]: frame I:1287 Avg QP:14.48 size: 84928
x264 [info]: frame P:26554 Avg QP:17.17 size: 28996
x264 [info]: frame B:100980 Avg QP:20.00 size: 7536
x264 [info]: consecutive B-frames: 2.0% 1.9% 9.1% 14.4% 13.9% 47.0% 4.7% 2.5% 2.1% 0.6% 1.0% 1.0%
x264 [info]: mb I I16..4: 7.1% 67.6% 25.3%
x264 [info]: mb P I16..4: 0.3% 6.3% 1.3% P16..4: 28.3% 34.7% 16.9% 3.3% 0.5% skip: 8.4%
x264 [info]: mb B I16..4: 0.0% 0.6% 0.1% B16..8: 32.0% 20.3% 3.9% direct: 4.9% skip:38.3% L0:41.1% L1:43.7% BI:15.2%
x264 [info]: 8x8 transform intra:76.3% inter:56.7%
x264 [info]: direct mvs spatial:98.3% temporal:1.7%
x264 [info]: coded y,uvDC,uvAC intra: 91.6% 91.0% 79.7% inter: 24.2% 22.3% 8.4%
x264 [info]: i16 v,h,dc,p: 41% 11% 11% 37%
x264 [info]: i8 v,h,dc,ddl,ddr,vr,hd,vl,hu: 15% 9% 6% 9% 13% 13% 12% 12% 12%
x264 [info]: i4 v,h,dc,ddl,ddr,vr,hd,vl,hu: 17% 9% 5% 8% 13% 13% 12% 11% 11%
x264 [info]: i8c dc,h,v,p: 45% 21% 18% 16%
x264 [info]: Weighted P-Frames: Y:2.8% UV:0.7%
x264 [info]: ref P L0: 46.5% 11.3% 18.8% 6.2% 5.4% 3.4% 3.3% 1.6% 1.8% 1.5% 0.2% 0.0%
x264 [info]: ref B L0: 75.1% 11.5% 5.2% 2.7% 1.8% 1.6% 1.3% 0.6% 0.2%
x264 [info]: ref B L1: 93.2% 6.8%
x264 [info]: kb/s:2442.27
encoded 128821 frames, 8.05 fps, 2442.27 kb/s
TIME
------------------------------
Общее время кодирования: 5 hour 33 min 31 sec
Файл получился на: 1565.21 mb

Скриншоты



Скачать

Скачать торрент!

Как скачивать? · Что такое торрент? · Рейтинг и ограничения

Сайт не распространяет и не хранит электронные версии произведений, а лишь предоставляет доступ к создаваемому пользователями каталогу ссылок на торрент-файлы, которые содержат только списки хеш-сумм

[Профиль] [ЛС]
Показать сообщения:    
Ответить на тему

Текущее время: Сегодня 00:06

Часовой пояс: GMT + 4



Вы не можете начинать темы
Вы не можете отвечать на сообщения
Вы не можете редактировать свои сообщения
Вы не можете удалять свои сообщения
Вы не можете голосовать в опросах
Вы не можете прикреплять файлы к сообщениям
Вы не можете скачивать файлы