Большая свадьба / The Big Wedding (Джастин Закэм / Justin Zackham) [2013 г., США, комедия, BDRip] Dub + Original (Eng) + Sub (Eng)

Ответить на тему
 
Автор Сообщение

user ®

Стаж: 7 лет 7 месяцев

Сообщений: 20008

Пост Пост: #1 от 16-Авг-2013 00:55

[Цитировать]

Большая свадьба / The Big Wedding-«Вы приглашены свидетелями!»-
Год выпуска: 2013
Страна: США
Жанр: комедия
Продолжительность: 01:29:32
Перевод: Профессиональный (полное дублирование) Blu-ray RUS + Оригинальная звуковая дорожка – отдельно
Субтитры: Английские (*.srt)-Режиссер: Джастин Закэм / Justin Zackham-В ролях: Роберт Де Ниро (Don), Дайан Китон (Ellie), Кэтрин Хайгл (Lyla), Сьюзен Сарандон (Bebe), Бен Барнс (Alejandro), Аманда Сайфред (Missy), Тофер Грейс (Jared), Ана Айора (Nuria), Робин Уильямс (Father Moinighan), Патриция Рэй (Madonna), Кристин Эберсоул (Muffin), Дэвид Раш (Barry)-Описание: История о современной семье, пытающейся пережить выходные свадебного торжества, которые могут обернуться полным крахом для них. К удивлению своих детей и друзей давно разведенные Дон и Элли Гриффин вынуждены притворяться счастливыми ради свадьбы своего приемного сына, после того как его ультраконсервативная биологическая мать неожиданно решает пролететь через пол мира, чтобы принять участие в этом торжестве...-Релиз от:
Автор рипа: denashekkk- -Качество: BDRip (Исходник: HDWinG/Blu-Ray Disc/1080p)
Формат: AVI
Видео: 720x304 (2.37:1), 23.976 fps, XviD build 65 ~1866 kbps avg, 0.35 bit/pixel
Аудио #1: 48 kHz, AC3 Dolby Digital, 3/2 (L,C,R,l,r) + LFE ch, ~448 kbps |DUB, Blu-ray RUS|
Аудио #2: 48 kHz, AC3 Dolby Digital, 3/2 (L,C,R,l,r) + LFE ch, ~448 kbps |ENG| (отдельным файлом)
Размер: 1488.78 Mb (1/3 DVD5)
-

Знаете ли Вы, что...

  • Это первый фильм, в котором появился обновленный логотип студии Lionsgate.
  • Аманда Сайфред ранее играла роль невесты в мюзикле «Мамма MIA!» (2008).

-

MediaInfo

General
Complete name                            : C:\Downloads\Bolshaya.Svadba.2013.RUS.BDRip.XviD.AC3.-HELLYWOOD\Bolshaya.Svadba.2013.RUS.BDRip.XviD.AC3.-HELLYWOOD.avi
Format                                   : AVI
Format/Info                              : Audio Video Interleave
File size                                : 1.45 GiB
Duration                                 : 1h 29mn
Overall bit rate                         : 2 324 Kbps
Movie name                               : Большая свадьба / The Big Wedding (2013)
Director                                 : denashekkk (Blu-ray Disc)
Writing application                      : VirtualDubMod 1.5.10.2 (build 2542/release)
Copyright                                : hellywood.ru
Video
ID                                       : 0
Format                                   : MPEG-4 Visual
Format profile                           : Advanced Simple@L5
Format settings, BVOP                    : 2
Format settings, QPel                    : No
Format settings, GMC                     : No warppoints
Format settings, Matrix                  : Custom
Codec ID                                 : XVID
Codec ID/Hint                            : XviD
Duration                                 : 1h 29mn
Bit rate                                 : 1 867 Kbps
Width                                    : 720 pixels
Height                                   : 304 pixels
Display aspect ratio                     : 2.35:1
Frame rate                               : 23.976 fps
Color space                              : YUV
Chroma subsampling                       : 4:2:0
Bit depth                                : 8 bits
Scan type                                : Progressive
Compression mode                         : Lossy
Bits/(Pixel*Frame)                       : 0.356
Stream size                              : 1.17 GiB (80%)
Writing library                          : XviD 65
Audio
ID                                       : 1
Format                                   : AC-3
Format/Info                              : Audio Coding 3
Mode extension                           : CM (complete main)
Format settings, Endianness              : Big
Codec ID                                 : 2000
Duration                                 : 1h 29mn
Bit rate mode                            : Constant
Bit rate                                 : 448 Kbps
Channel(s)                               : 6 channels
Channel positions                        : Front: L C R, Side: L R, LFE
Sampling rate                            : 48.0 KHz
Bit depth                                : 16 bits
Compression mode                         : Lossy
Stream size                              : 287 MiB (19%)
Alignment                                : Split accross interleaves
Interleave, duration                     : 42 ms (1.00 video frame)
Interleave, preload duration             : 500 ms
Title                                    : Dub [Rus]

-

Сравнение

Сравнение с этой [url=http://***/forum/viewtopic.php?t=4510421]раздачей[/url].

-

Скриншот c названием фильма


-

Скриншоты


-
Скачать

Скачать торрент!

Как скачивать? · Что такое торрент? · Рейтинг и ограничения

Сайт не распространяет и не хранит электронные версии произведений, а лишь предоставляет доступ к создаваемому пользователями каталогу ссылок на торрент-файлы, которые содержат только списки хеш-сумм

[Профиль] [ЛС]
Показать сообщения:    
Ответить на тему

Текущее время: Сегодня 02:18

Часовой пояс: GMT + 4



Вы не можете начинать темы
Вы не можете отвечать на сообщения
Вы не можете редактировать свои сообщения
Вы не можете удалять свои сообщения
Вы не можете голосовать в опросах
Вы не можете прикреплять файлы к сообщениям
Вы не можете скачивать файлы