Маттерхорн / Matterhorn (Дидерик Эббинге / Diederik Ebbinge) [2013, Нидерланды, драма комедия, DVDRip] Sub (Rus, Eng) + Original Dut

Ответить на тему
 
Автор Сообщение

user ®

Стаж: 7 лет 7 месяцев

Сообщений: 20008

Пост Пост: #1 от 16-Авг-2013 00:55

[Цитировать]

Маттерхорн / Matterhorn
Страна: Нидерланды
Жанр: драма комедия
Год выпуска: 2013
Продолжительность: 01:23:07
Перевод 1: Субтитры - дед_сто_лет©
Перевод 2: Субтитры английские
Cубтитры: русские
Оригинальная аудиодорожка: нидерландский
Режиссер: Дидерик Эббинге / Diederik Ebbinge
В ролях: Тон КАС, Рене Вантхоф, Проги Франссен, Ариане Шлютер
Описание: Фред живет скучной размеренной жизнью, его жена погибла, с сыном они не общаются. Он находит спасение в Боге и в музыке Баха. И вот в его жизни появляется Тэо, грязый полоумный бродяга. Больше Фред никогда не станет жить как прежде.©
Фильм получил приз зрительских симпатий 35-го ММКФ
> > > > > > >
Качество видео: DVDRip
Формат видео: AVI
Видео: 720x320 (2.25:1), 25 fps, DivX Codec 5.x or 6.x ~2053 kbps avg, 0.36 bit/pixel
Аудио: 48 kHz, AC3 Dolby Digital, 3/2 (L,C,R,l,r) + LFE ch, ~448 kbps
Формат субтитров: softsub (SRT)
Доп. информация о субтитрах: дед_сто_лет

Пример субтитров

178
00:31:34,640 --> 00:31:36,039
Прекратите.
179
00:31:38,600 --> 00:31:39,715
Прекратите.
180
00:31:40,360 --> 00:31:42,191
Лови.
181
00:31:43,360 --> 00:31:44,395
Прекрати.
182
00:31:47,600 --> 00:31:49,955
Прекрати. Идем.
183
00:31:51,320 --> 00:31:52,594
Гомик.
184
00:32:02,560 --> 00:32:04,391
Эй, пусти меня.
185
00:32:11,600 --> 00:32:12,749
Прекрати.
186
00:32:12,880 --> 00:32:14,632
Прекрати немедленно!
187
00:32:28,640 --> 00:32:29,993
Ты сошел с ума!
188
00:32:37,320 --> 00:32:38,719
Идем.
189
00:34:12,440 --> 00:34:14,112
- Здравствуйте.
- Привет.
190
00:34:15,240 --> 00:34:16,798
Мы...
191
00:34:16,920 --> 00:34:19,832
- ...артисты.
- Конечно. Заходите.
192
00:34:20,280 --> 00:34:22,475
Дети, они пришли.
193
00:34:22,960 --> 00:34:23,995
Привет.
194
00:34:26,760 --> 00:34:27,988
Э-э.
195
00:34:32,280 --> 00:34:34,874
- Нет...
- Э-э.
196
00:34:51,000 --> 00:34:54,231
Добрый день, дамы и господа,
а также девочки и мальчики.
197
00:34:55,640 --> 00:34:59,553
Наши искренние поздравления.
198
00:34:59,680 --> 00:35:05,152
Наши наилучшие пожелания Флёр...
199
00:35:05,680 --> 00:35:08,513
...у которой сегодня день рождения.
200
00:35:08,640 --> 00:35:10,039
Э-э.
201
00:35:10,880 --> 00:35:14,634
Первая песня...
202
00:35:14,760 --> 00:35:17,991
...которую мы хотим исполнить...
203
00:35:18,120 --> 00:35:20,190
...для вас исполняется песня:

MediaInfo

General
Complete name : C:\Torrents\[Европа_и_Америка]\Matterhorn.2013.Rus\Matterhorn.avi
Format : DivX
Format/Info : Hack of AVI
File size : 1.46 GiB
Duration : 1h 23mn
Overall bit rate : 2 511 Kbps
Video
ID : 0
Format : MPEG-4 Visual
Format profile : Advanced Simple@L5
Format settings, BVOP : 1
Format settings, QPel : No
Format settings, GMC : No warppoints
Format settings, Matrix : Default (H.263)
Muxing mode : Packed bitstream
Codec ID : DX50
Codec ID/Hint : DivX 5
Duration : 1h 23mn
Bit rate : 2 053 Kbps
Width : 720 pixels
Height : 320 pixels
Display aspect ratio : 2.25:1
Frame rate : 25.000 fps
Color space : YUV
Chroma subsampling : 4:2:0
Bit depth : 8 bits
Scan type : Progressive
Compression mode : Lossy
Bits/(Pixel*Frame) : 0.356
Stream size : 1.19 GiB (82%)
Title : Video
Writing library : XviD 1.2.1 (UTC 2008-12-04)
Audio
ID : 1
Format : AC-3
Format/Info : Audio Coding 3
Mode extension : CM (complete main)
Codec ID : 2000
Duration : 1h 23mn
Bit rate mode : Constant
Bit rate : 448 Kbps
Channel(s) : 6 channels
Channel positions : Front: L C R, Side: L R, LFE
Sampling rate : 48.0 KHz
Bit depth : 16 bits
Compression mode : Lossy
Stream size : 266 MiB (18%)
Alignment : Split accross interleaves
Interleave, duration : 40 ms (1.00 video frame)
Interleave, preload duration : 500 ms
Title : Audio

Скриншот c названием фильма

Скриншоты

Скачать

Скачать торрент!

Как скачивать? · Что такое торрент? · Рейтинг и ограничения

Сайт не распространяет и не хранит электронные версии произведений, а лишь предоставляет доступ к создаваемому пользователями каталогу ссылок на торрент-файлы, которые содержат только списки хеш-сумм

[Профиль] [ЛС]
Показать сообщения:    
Ответить на тему

Текущее время: Сегодня 02:19

Часовой пояс: GMT + 4



Вы не можете начинать темы
Вы не можете отвечать на сообщения
Вы не можете редактировать свои сообщения
Вы не можете удалять свои сообщения
Вы не можете голосовать в опросах
Вы не можете прикреплять файлы к сообщениям
Вы не можете скачивать файлы