Эпик / Epic (Крис Уэдж / Chris Wedge) [2013, мультфильм, фэнтези, приключения, семейный, BDRip-AVC] Dub + Sub Rus, Eng

Ответить на тему
 
Автор Сообщение

user ®

Стаж: 12 лет

Сообщений: 15145

Пост Пост: #1 от 15-Авг-2013 02:45

[Цитировать]

Эпик / Epic«Исследуй мир за пределами своего воображения»- Страна: США
Студия: 20th Century Fox Animation, Blue Sky Studios
Жанр: мультфильм, фэнтези, приключения, семейный
Продолжительность: 1h 42mn 29s
Год выпуска: 2013
Перевод: Профессиональный (дублированный) [iTunes Russia]
Субтитры: Rus, Eng
Режиссёр: Крис Уэдж / Chris Wedge
Роли озвучивали: Аманда Сайфред, Джош Хатчерсон, Колин Фаррелл, Джейсон Судейкис, Азис Ансари, Крис О'Дауд, Кристоф Вальц, Стивен Тайлер, Бейонсе Ноулз, Эллисон Биллс, Блейк Андерсон...
Роли дублировали: Юлия Савичева, Петр Иващенко, Илья Исаев, Никита Прозоровский, Диомид Виноградов...-ОписаниеПосле долгой разлуки юная Мэри Кэтрин возвращается в дом, где отшельником живет ее отец, безумный профессор Бомба. Однако тот совсем не обращает внимания на дочь и одержим лишь одной идеей — изучить скрытый от посторонних глаз таинственный лесной мир. Девушка отказывается верить, что под ногами человечества идет вечная борьба между армиями, воюющими на сторонах добра и зла. Чудесным образом Мэри Кэтрин уменьшается в размерах и знакомится с маленькими воинами. Теперь от нее зависит спасение не только волшебного лесного, но и реального человеческого мира.-Сэмпл

IMDb: 6.60 (14 946)
Качество: BDRip-AVC [Epic.2013.BDRemux.1080p]
Формат: MKV
Видео: AVC 1660 Kbps 960 x 400 (2.400) 23.976 fps
Аудио: AC-3 384 Kbps 6 channels, 48.0 KHz Rus Dub [iTunes Russia]
Субтитры: Rus, Eng SRT

MI

Format : Matroska
Format version : Version 4 / Version 2
File size : 1.46 GiB
Duration : 1h 42mn
Overall bit rate : 2 046 Kbps
Encoded date : UTC 2013-08-14 06:58:29
Writing application : mkvmerge v6.2.0 ('Promised Land') built on Apr 28 2013 12:22:01
Writing library : libebml v1.3.0 + libmatroska v1.4.0
Video
ID : 1
Format : AVC
Format/Info : Advanced Video Codec
Format profile : High@L4.1
Format settings, CABAC : Yes
Format settings, ReFrames : 12 frames
Codec ID : V_MPEG4/ISO/AVC
Duration : 1h 42mn
Bit rate : 1 660 Kbps
Width : 960 pixels
Height : 400 pixels
Display aspect ratio : 2.40:1
Frame rate mode : Constant
Frame rate : 23.976 fps
Color space : YUV
Chroma subsampling : 4:2:0
Bit depth : 8 bits
Scan type : Progressive
Bits/(Pixel*Frame) : 0.180
Stream size : 1.16 GiB (79%)
Writing library : x264 core 135 r2345 f0c1c53
Encoding settings : cabac=1 / ref=12 / deblock=1:-2:-1 / analyse=0x3:0x133 / me=umh / subme=11 / psy=1 / psy_rd=1.00:0.05 / mixed_ref=1 / me_range=48 / chroma_me=1 / trellis=2 / 8x8dct=1 / cqm=0 / deadzone=21,11 / fast_pskip=0 / chroma_qp_offset=-3 / threads=12 / lookahead_threads=2 / sliced_threads=0 / nr=0 / decimate=1 / interlaced=0 / bluray_compat=0 / constrained_intra=0 / bframes=8 / b_pyramid=2 / b_adapt=2 / b_bias=0 / direct=3 / weightb=1 / open_gop=0 / weightp=2 / keyint=250 / keyint_min=23 / scenecut=40 / intra_refresh=0 / rc_lookahead=60 / rc=2pass / mbtree=1 / bitrate=1660 / ratetol=1.0 / qcomp=0.60 / qpmin=0 / qpmax=69 / qpstep=4 / cplxblur=20.0 / qblur=0.5 / ip_ratio=1.40 / aq=1:1.00
Language : English
Default : Yes
Forced : No
Audio
ID : 2
Format : AC-3
Format/Info : Audio Coding 3
Mode extension : CM (complete main)
Format settings, Endianness : Big
Codec ID : A_AC3
Duration : 1h 42mn
Bit rate mode : Constant
Bit rate : 384 Kbps
Channel(s) : 6 channels
Channel positions : Front: L C R, Side: L R, LFE
Sampling rate : 48.0 KHz
Bit depth : 16 bits
Compression mode : Lossy
Stream size : 281 MiB (19%)
Title : Rus (Dub iTunes )
Language : Russian
Default : Yes
Forced : No
Text #1
ID : 3
Format : UTF-8
Codec ID : S_TEXT/UTF8
Codec ID/Info : UTF-8 Plain Text
Title : Rus
Language : Russian
Default : No
Forced : No
Text #2
ID : 4
Format : UTF-8
Codec ID : S_TEXT/UTF8
Codec ID/Info : UTF-8 Plain Text
Title : Eng
Language : English
Default : No
Forced : No

Скриншоты

Скачать

Скачать торрент! Эпик / Epic (Крис Уэдж / Chris Wedge) [2013, мультфильм, фэнтези, приключения, семейный, BDRip-AVC] Dub + Sub Rus, Eng

Как скачивать? · Что такое торрент? · Рейтинг и ограничения

Сайт не распространяет и не хранит электронные версии произведений, а лишь предоставляет доступ к создаваемому пользователями каталогу ссылок на торрент-файлы, которые содержат только списки хеш-сумм

[Профиль] [ЛС]
Показать сообщения:    
Ответить на тему

Текущее время: Сегодня 21:11

Часовой пояс: GMT + 4



Вы не можете начинать темы
Вы не можете отвечать на сообщения
Вы не можете редактировать свои сообщения
Вы не можете удалять свои сообщения
Вы не можете голосовать в опросах
Вы не можете прикреплять файлы к сообщениям
Вы не можете скачивать файлы