Дон. Главарь мафии / Don (Фархан Акхтар / Farhan Akhtar) [2006, Индия, боевик, триллер, мелодрама, комедия, криминал, BDRip] MVO

Ответить на тему
 
Автор Сообщение

user ®

Стаж: 12 лет

Сообщений: 15124

Пост Пост: #1 от 14-Авг-2013 23:35

[Цитировать]

Дон. Главарь мафии / Don- Год выпуска: 2006
Выпущено: Индия
Жанр: боевик, триллер, мелодрама, комедия, криминал
Продолжительность: 02:48:35
Перевод: Профессиональный (многоголосый, закадровый)
Субтитры: нет-Режиссер: Фархан Акхтар / Farhan Akhtar
В ролях: Шах Рукх Кхан, Приянка Чопра, Арджун Рампал, Иша Коппикар, Боман Ирани, Ом Пури, Паван Малхотра, Раджеш Кхаттар, Танай Чхеда, Карина Капур
О фильме: Дон - главарь мафии, группы, которая занимается торговлей наркотиков. За ним охотится вся полиция Индии. Однажды в схватке с полицией Дон получает тяжелые ранения и заходят слухи, что Дон был убит. Однако, чтобы поймать всех остальных членов банды, инспектор Дсилва уговаривает простого человека Виджая, который как две капли воды похож на Дона, занять его место. И замена происходит незамеченной. Но Дсилва убит. И теперь Виджай может надеятся только на свои силы, чтобы выбраться из банды, поскольку Дсилва был единственным человеком, который знал об этом подлоге.
Релиз:
Автор: kingsize87
Качество: BDRip (источник: / Blu-ray / 1080р)
Формат: AVI
Видео: 720x304 (2.37:1), 24 fps, XviD build 65 ~2073 kbps avg, 0.39 bit/pixel
Аудио: 48 kHz, AC3 Dolby Digital, 3/2 (L,C,R,l,r) + LFE ch, ~384.00 kbps avg
Размер: 2972.02 Mb (2/3 DVD-R)-

Кадры из фильма


-

Mi


Формат : AVI
Формат/Информация : Audio Video Interleave
Профиль формата : OpenDML
Размер файла : 2,90 Гбайт
Продолжительность : 2 ч. 48 м.
Общий поток : 2465 Кбит/сек
Название фильма : Дон. Главарь мафии / Don (2006) BDRip
Режиссёр : kingsize87
Программа кодирования : VirtualDubMod 1.5.10.2 (build 2540/release)
Правообладатель : HQCLUB
Примечание : 13.08.2013
Видео
Идентификатор : 0
Формат : MPEG-4 Visual
Профиль формата : Advanced Simple@L5
Параметр BVOP формата : 1
Параметр QPel формата : Нет
Параметр GMC формата : Без точки перехода
Параметр матрицы формата : Выборочная
Идентификатор кодека : XVID
Идентификатор кодека/Подсказка : XviD
Продолжительность : 2 ч. 48 м.
Битрейт : 2070 Кбит/сек
Ширина : 720 пикселей
Высота : 304 пикселя
Соотношение сторон : 2,35:1
Частота кадров : 24,000 кадра/сек
Цветовое пространство : YUV
Субдискретизация насыщенности : 4:2:0
Битовая глубина : 8 бит
Тип развёртки : Прогрессивная
Метод сжатия : С потерями
Бит/(Пиксели*Кадры) : 0.394
Размер потока : 2,44 Гбайт (84%)
Библиотека кодирования : XviD 65
Аудио
Идентификатор : 1
Формат : AC-3
Формат/Информация : Audio Coding 3
Расширение режима : CM (complete main)
Параметр Endianness формата : Big
Идентификатор кодека : 2000
Продолжительность : 2 ч. 48 м.
Вид битрейта : Постоянный
Битрейт : 384 Кбит/сек
Каналы : 6 каналов
Расположение каналов : Front: L C R, Side: L R, LFE
Частота : 48,0 КГц
Битовая глубина : 16 бит
Метод сжатия : С потерями
Размер потока : 463 Мбайт (16%)
Выравнивание : Разделение по промежуткам
Продолжительность промежутка : 42 мс. (1,00 видеокадр)
Время предзагрузки промежутка : 500 мс.
-
Скачать

Скачать торрент! Дон. Главарь мафии / Don (Фархан Акхтар / Farhan Akhtar) [2006, Индия, боевик, триллер, мелодрама, комедия, криминал, BDRip] MVO

Как скачивать? · Что такое торрент? · Рейтинг и ограничения

Сайт не распространяет и не хранит электронные версии произведений, а лишь предоставляет доступ к создаваемому пользователями каталогу ссылок на торрент-файлы, которые содержат только списки хеш-сумм

[Профиль] [ЛС]
Показать сообщения:    
Ответить на тему

Текущее время: Сегодня 21:50

Часовой пояс: GMT + 4



Вы не можете начинать темы
Вы не можете отвечать на сообщения
Вы не можете редактировать свои сообщения
Вы не можете удалять свои сообщения
Вы не можете голосовать в опросах
Вы не можете прикреплять файлы к сообщениям
Вы не можете скачивать файлы