Порочные игры / Стокер / Stoker (Пак Чхан Ук / Park Chan Wook) [2013, Великобритания, США, триллер, драма, детектив, BDRip 1080p] MVO (Blu-ray EUR) + 2х AVO (Ю. Сербин, А. Дольский) + 2х VO (Doctor Joker, den904) + Sub Rus, Eng + Original Eng

Ответить на тему
 
Автор Сообщение

user ®

Стаж: 7 лет 7 месяцев

Сообщений: 20008

Пост Пост: #1 от 14-Авг-2013 23:35

[Цитировать]

Порочные игры
Stoker

«Do not disturb the family.»
Страна: Великобритания, США
Жанр: Триллер, драма, детектив
Год выпуска: 2013
Продолжительность: 01:38:55
Перевод:
  • Профессиональный (многолосый закадровый)
  • Авторский (одноголосый закадровый) |Ю.Сербин|
  • Авторский (одноголосый закадровый) |А.Дольский|
  • Одноголосый закадровый |Doctor_Joker|
  • Одноголосый закадровый |den904|
Оригинальная аудиодорожка: английский
Cубтитры: Russian, Russian (MatinaG), Russian (jerichOne), Ukrainian, English, English (SDH), English (SDH-COLORED)
Режиссер: Пак Чхан Ук / Park Chan Wook
В ролях: Миа Васиковска, Мэттью Гуд, Николь Кидман, Дермот Малруни, Лукас Тилл, Олден Эйренрайк, Джеки Уивер, Ральф Браун, Жюдит Годреш, Филлис Соммервиль
Описание: После смерти отца к девушке и её эмоционально неустойчивой матери приезжает их загадочный дядя.
Сэмпл: http://yadi.sk/d/-OxECRH37lBHf
Релиз:
Качество: BDRip | Контейнер: MKV | Рип: EbP!
Видео: 1920x800 at 23.976 fps, x264@L4.1, CRF, ~18.9 Mbps avg
Аудио: Russian: 48 kHz, DTS, 3/2 (L,C,R,l,r) + LFE ch, ~768.00 kbps avg |Многоголосый закадровый, Blu-ray EUR|
Аудио: Russian: 48 kHz, DTS, 3/2 (L,C,R,l,r) + LFE ch, ~1536.00 kbps avg |Одноголосый закадровый, Ю.Сербин|
Аудио: Russian: 48 kHz, AC3, 3/2 (L,C,R,l,r) + LFE ch, ~640.00 kbps avg |Одноголосый закадровый, А.Дольский|
Аудио: Russian: 48 kHz, AC3, 3/2 (L,C,R,l,r) + LFE ch, ~640.00 kbps avg |Одноголосый закадровый, Doctor_Joker|
Аудио: Russian: 48 kHz, AC3, 3/2 (L,C,R,l,r) + LFE ch, ~640.00 kbps avg |Одноголосый закадровый, den904|
Аудио: English: 48 kHz, DTS, 3/2 (L,C,R,l,r) + LFE ch, ~1536 kbps avg
Аудио: English: 48 kHz, AC3, 3/2 (L,C,R,l,r) + LFE ch, ~448.00 kbps avg |Commentary|
Формат субтитров: softsub (SRT)-

MediaInfo

Общее
Уникальный идентификатор                 : 251305071878293304992498167179481259505 (0xBD0F98A7D1114E1C91E4EFF8C23D1DF1)
Полное имя                               : C:\Users\Zerl\Downloads\[1080p] Stoker.mkv
Формат                                   : Matroska
Версия формата                           : Version 2
Размер файла                             : 17,6 Гбайт
Продолжительность                        : 1 ч. 38 м.
Общий поток                              : 25,5 Мбит/сек
Название фильма                          : Stoker (2013) - Release by zerl
Дата кодирования                         : UTC 2013-08-10 12:21:53
Программа кодирования                    : mkvmerge v5.6.0 ('Kenya Kane') built on Jun 29 2012 15:01:44
Библиотека кодирования                   : libebml v1.2.3 + libmatroska v1.3.0
Видео
Идентификатор                            : 1
Формат                                   : AVC
Формат/Информация                        : Advanced Video Codec
Профиль формата                          : High@L4.1
Параметр CABAC формата                   : Да
Параметр ReFrames формата                : 5 кадров
Идентификатор кодека                     : V_MPEG4/ISO/AVC
Продолжительность                        : 1 ч. 38 м.
Битрейт                                  : 18,8 Мбит/сек
Ширина                                   : 1920 пикселей
Высота                                   : 800 пикселей
Соотношение сторон                       : 2,40:1
Режим частоты кадров                     : Переменный / Постоянный
Частота кадров                           : 23,976 кадра/сек
Цветовое пространство                    : YUV
Субдискретизация насыщенности            : 4:2:0
Битовая глубина                          : 8 бит
Тип развёртки                            : Прогрессивная
Бит/(Пиксели*Кадры)                      : 0.511
Размер потока                            : 13,0 Гбайт (74%)
Библиотека кодирования                   : x264 core 130 r2273 b3065e6
Настройки программы                      : cabac=1 / ref=5 / deblock=1:-3:-3 / analyse=0x3:0x113 / me=tesa / subme=10 / psy=1 / psy_rd=1.10:0.00 / mixed_ref=1 / me_range=16 / chroma_me=1 / trellis=2 / 8x8dct=1 / cqm=0 / deadzone=21,11 / fast_pskip=0 / chroma_qp_offset=-2 / threads=12 / lookahead_threads=2 / sliced_threads=0 / nr=0 / decimate=0 / interlaced=0 / bluray_compat=0 / constrained_intra=0 / bframes=8 / b_pyramid=2 / b_adapt=2 / b_bias=0 / direct=3 / weightb=1 / open_gop=0 / weightp=2 / keyint=250 / keyint_min=23 / scenecut=40 / intra_refresh=0 / rc=crf / mbtree=0 / crf=16.4 / qcomp=0.70 / qpmin=0 / qpmax=69 / qpstep=4 / ip_ratio=1.30 / pb_ratio=1.20 / aq=1:0.75 / zones=136141,141890,crf=30
Язык                                     : English
Default                                  : Да
Forced                                   : Нет
Аудио #1
Идентификатор                            : 2
Формат                                   : DTS
Формат/Информация                        : Digital Theater Systems
Идентификатор кодека                     : A_DTS
Продолжительность                        : 1 ч. 38 м.
Вид битрейта                             : Постоянный
Битрейт                                  : 755 Кбит/сек
Каналы                                   : 6 каналов
Расположение каналов                     : Front: L C R, Side: L R, LFE
Частота                                  : 48,0 КГц
Битовая глубина                          : 24 бит
Метод сжатия                             : С потерями
Размер потока                            : 534 Мбайт (3%)
Заголовок                                : DTS 5.1 @ 768 kbps - MVO, Blu-ray EUR
Язык                                     : Russian
Default                                  : Да
Forced                                   : Нет
Аудио #2
Идентификатор                            : 3
Формат                                   : DTS
Формат/Информация                        : Digital Theater Systems
Идентификатор кодека                     : A_DTS
Продолжительность                        : 1 ч. 38 м.
Вид битрейта                             : Постоянный
Битрейт                                  : 1510 Кбит/сек
Каналы                                   : 6 каналов
Расположение каналов                     : Front: L C R, Side: L R, LFE
Частота                                  : 48,0 КГц
Битовая глубина                          : 24 бит
Метод сжатия                             : С потерями
Размер потока                            : 1,04 Гбайт (6%)
Заголовок                                : DTS 5.1 @ 1536 kbps - AVO, Ю.Сербин
Язык                                     : Russian
Default                                  : Нет
Forced                                   : Нет
Аудио #3
Идентификатор                            : 4
Формат                                   : AC-3
Формат/Информация                        : Audio Coding 3
Расширение режима                        : CM (complete main)
Идентификатор кодека                     : A_AC3
Продолжительность                        : 1 ч. 38 м.
Вид битрейта                             : Постоянный
Битрейт                                  : 640 Кбит/сек
Каналы                                   : 6 каналов
Расположение каналов                     : Front: L C R, Side: L R, LFE
Частота                                  : 48,0 КГц
Битовая глубина                          : 16 бит
Метод сжатия                             : С потерями
Размер потока                            : 453 Мбайт (3%)
Заголовок                                : AC3 5.1 @ 640 kbps - AVO, А.Дольский
Язык                                     : Russian
Default                                  : Нет
Forced                                   : Нет
Аудио #4
Идентификатор                            : 5
Формат                                   : AC-3
Формат/Информация                        : Audio Coding 3
Расширение режима                        : CM (complete main)
Идентификатор кодека                     : A_AC3
Продолжительность                        : 1 ч. 38 м.
Вид битрейта                             : Постоянный
Битрейт                                  : 640 Кбит/сек
Каналы                                   : 6 каналов
Расположение каналов                     : Front: L C R, Side: L R, LFE
Частота                                  : 48,0 КГц
Битовая глубина                          : 16 бит
Метод сжатия                             : С потерями
Размер потока                            : 453 Мбайт (3%)
Заголовок                                : AC3 5.1 @ 640 kbps - VO, Doctor_Joker
Язык                                     : Russian
Default                                  : Нет
Forced                                   : Нет
Аудио #5
Идентификатор                            : 6
Формат                                   : AC-3
Формат/Информация                        : Audio Coding 3
Расширение режима                        : CM (complete main)
Идентификатор кодека                     : A_AC3
Продолжительность                        : 1 ч. 38 м.
Вид битрейта                             : Постоянный
Битрейт                                  : 640 Кбит/сек
Каналы                                   : 6 каналов
Расположение каналов                     : Front: L C R, Side: L R, LFE
Частота                                  : 48,0 КГц
Битовая глубина                          : 16 бит
Метод сжатия                             : С потерями
Размер потока                            : 453 Мбайт (3%)
Заголовок                                : AC3 5.1 @ 640 kbps - VO, den904
Язык                                     : Russian
Default                                  : Нет
Forced                                   : Нет
Аудио #6
Идентификатор                            : 7
Формат                                   : DTS
Формат/Информация                        : Digital Theater Systems
Идентификатор кодека                     : A_DTS
Продолжительность                        : 1 ч. 38 м.
Вид битрейта                             : Постоянный
Битрейт                                  : 1510 Кбит/сек
Каналы                                   : 6 каналов
Расположение каналов                     : Front: L C R, Side: L R, LFE
Частота                                  : 48,0 КГц
Битовая глубина                          : 24 бит
Метод сжатия                             : С потерями
Размер потока                            : 1,04 Гбайт (6%)
Заголовок                                : DTS 5.1 @ 1536 kbps
Язык                                     : English
Default                                  : Нет
Forced                                   : Нет
Аудио #7
Идентификатор                            : 8
Формат                                   : AC-3
Формат/Информация                        : Audio Coding 3
Расширение режима                        : CM (complete main)
Идентификатор кодека                     : A_AC3
Продолжительность                        : 1 ч. 38 м.
Вид битрейта                             : Постоянный
Битрейт                                  : 448 Кбит/сек
Каналы                                   : 6 каналов
Расположение каналов                     : Front: L C R, Side: L R, LFE
Частота                                  : 48,0 КГц
Битовая глубина                          : 16 бит
Метод сжатия                             : С потерями
Размер потока                            : 317 Мбайт (2%)
Заголовок                                : AC3 5.1 @ 448 kbps - Descriptive
Язык                                     : English
Default                                  : Нет
Forced                                   : Нет
Текст #1
Идентификатор                            : 9
Формат                                   : UTF-8
Идентификатор кодека                     : S_TEXT/UTF8
Идентификатор кодека/Информация          : UTF-8 Plain Text
Язык                                     : Russian
Default                                  : Нет
Forced                                   : Нет
Текст #2
Идентификатор                            : 10
Формат                                   : UTF-8
Идентификатор кодека                     : S_TEXT/UTF8
Идентификатор кодека/Информация          : UTF-8 Plain Text
Заголовок                                : MatinaG
Язык                                     : Russian
Default                                  : Нет
Forced                                   : Нет
Текст #3
Идентификатор                            : 11
Формат                                   : UTF-8
Идентификатор кодека                     : S_TEXT/UTF8
Идентификатор кодека/Информация          : UTF-8 Plain Text
Заголовок                                : jerichOne
Язык                                     : Russian
Default                                  : Нет
Forced                                   : Нет
Текст #4
Идентификатор                            : 12
Формат                                   : UTF-8
Идентификатор кодека                     : S_TEXT/UTF8
Идентификатор кодека/Информация          : UTF-8 Plain Text
Язык                                     : Ukrainian
Default                                  : Нет
Forced                                   : Нет
Текст #5
Идентификатор                            : 13
Формат                                   : UTF-8
Идентификатор кодека                     : S_TEXT/UTF8
Идентификатор кодека/Информация          : UTF-8 Plain Text
Язык                                     : English
Default                                  : Нет
Forced                                   : Нет
Текст #6
Идентификатор                            : 14
Формат                                   : UTF-8
Идентификатор кодека                     : S_TEXT/UTF8
Идентификатор кодека/Информация          : UTF-8 Plain Text
Заголовок                                : SDH
Язык                                     : English
Default                                  : Нет
Forced                                   : Нет
Текст #7
Идентификатор                            : 15
Формат                                   : UTF-8
Идентификатор кодека                     : S_TEXT/UTF8
Идентификатор кодека/Информация          : UTF-8 Plain Text
Заголовок                                : SDH-COLORED
Язык                                     : English
Default                                  : Нет
Forced                                   : Нет
Меню
00:00:00.000                             : en:00:00:00.000
00:03:48.603                             : en:00:03:48.603
00:04:37.277                             : en:00:04:37.277
00:07:26.863                             : en:00:07:26.863
00:08:42.147                             : en:00:08:42.147
00:13:28.558                             : en:00:13:28.558
00:16:59.810                             : en:00:16:59.810
00:19:24.955                             : en:00:19:24.955
00:22:27.096                             : en:00:22:27.096
00:26:50.067                             : en:00:26:50.067
00:30:26.533                             : en:00:30:26.533
00:34:43.290                             : en:00:34:43.290
00:39:18.565                             : en:00:39:18.565
00:41:47.505                             : en:00:41:47.505
00:46:14.772                             : en:00:46:14.772
00:49:42.730                             : en:00:49:42.730
00:52:46.830                             : en:00:52:46.830
00:54:50.496                             : en:00:54:50.496
00:59:21.558                             : en:00:59:21.558
01:02:43.051                             : en:01:02:43.051
01:07:04.187                             : en:01:07:04.187
01:08:38.239                             : en:01:08:38.239
01:15:24.895                             : en:01:15:24.895
01:18:14.773                             : en:01:18:14.773
01:22:11.927                             : en:01:22:11.927
01:26:22.511                             : en:01:26:22.511
01:31:17.472                             : en:01:31:17.472
01:34:38.214                             : en:01:34:38.214

-

Скриншоты

-
Скачать

Скачать торрент!

Как скачивать? · Что такое торрент? · Рейтинг и ограничения

Сайт не распространяет и не хранит электронные версии произведений, а лишь предоставляет доступ к создаваемому пользователями каталогу ссылок на торрент-файлы, которые содержат только списки хеш-сумм

[Профиль] [ЛС]
Показать сообщения:    
Ответить на тему

Текущее время: Сегодня 21:24

Часовой пояс: GMT + 4



Вы не можете начинать темы
Вы не можете отвечать на сообщения
Вы не можете редактировать свои сообщения
Вы не можете удалять свои сообщения
Вы не можете голосовать в опросах
Вы не можете прикреплять файлы к сообщениям
Вы не можете скачивать файлы