Когда прилетают аисты (Петр Амиров, Зиновий Ройзман) [1978, кукольный мультфильм , DVB]

Ответить на тему
 
Автор Сообщение

user ®

Стаж: 7 лет 7 месяцев

Сообщений: 20008

Пост Пост: #1 от 14-Авг-2013 09:55

[Цитировать]

Когда прилетают аисты
Жанр: кукольный мультфильм
Год выпуска: 1978
Продолжительность: 00:17:48
Режиссёр: Петр Амиров, Зиновий Ройзман
Описание: мультфильм о том, как хозяин забыл на поле огородное пугало. Наступила осень, птицы потянулись к югу и пугалу надоело висеть без дела на шесте. Он попросил ослика, чтобы тот помог ему слезть. В это время стая аистов собиралась в дорогу. Вяснилось, что один аистёнок не может лететь, его ранили охотники. Пугало вызвалось ухаживать за больным аистёнком всю зиму...
Доп. информация: по мотивам пьесы Л.Лопейской и К.Кручининой "Аистенок и пугало"

Релиз группы:
Трансляция спутникового канала: "Карусель"
Качество видео: DVB
Формат видео: MPEG-PS
Видео: MPEG2 Video, 720x576, 25 fps, 3500 kbps
Аудио: MPEG Audio, 2 сh, 48 kHz, 192 kbps

MediaInfo

General
Complete name : D:\Когда прилетают аисты. (1978)_DVB by SLuMeP.mpg
Format : MPEG-PS
File size : 480 MiB
Duration : 17mn 48s
Overall bit rate mode : Variable
Overall bit rate : 3 768 Kbps
Video #224
ID : 224 (0xE0)
Format : MPEG Video
Format version : Version 2
Format profile : Main@Main
Format settings, BVOP : Yes
Format settings, Matrix : Custom
Format settings, GOP : M=3, N=12
Duration : 17mn 48s
Bit rate mode : Variable
Bit rate : 3 501 Kbps
Maximum bit rate : 5 000 Kbps
Width : 720 pixels
Height : 576 pixels
Display aspect ratio : 4:3
Frame rate : 25.000 fps
Standard : PAL
Color space : YUV
Chroma subsampling : 4:2:0
Bit depth : 8 bits
Scan type : Interlaced
Scan order : Top Field First
Compression mode : Lossy
Bits/(Pixel*Frame) : 0.338
Stream size : 446 MiB (93%)
Audio #192
ID : 192 (0xC0)
Format : MPEG Audio
Format version : Version 1
Format profile : Layer 2
Duration : 17mn 48s
Bit rate mode : Constant
Bit rate : 192 Kbps
Channel(s) : 2 channels
Sampling rate : 48.0 KHz
Compression mode : Lossy
Stream size : 24.5 MiB (5%)

Скриншоты

Скачать

Скачать торрент!

Как скачивать? · Что такое торрент? · Рейтинг и ограничения

Сайт не распространяет и не хранит электронные версии произведений, а лишь предоставляет доступ к создаваемому пользователями каталогу ссылок на торрент-файлы, которые содержат только списки хеш-сумм

[Профиль] [ЛС]
Показать сообщения:    
Ответить на тему

Текущее время: Сегодня 08:11

Часовой пояс: GMT + 4



Вы не можете начинать темы
Вы не можете отвечать на сообщения
Вы не можете редактировать свои сообщения
Вы не можете удалять свои сообщения
Вы не можете голосовать в опросах
Вы не можете прикреплять файлы к сообщениям
Вы не можете скачивать файлы