Роб Рой / Rob Roy (Майкл Кейтон-Джонс / Michael Caton-Jones) [1995, США, Великобритания, Драма, военный, приключения, история, экранизация, BDRip 720p] MVO (ОРТ) + MVO (НТВ+) + MVO (Варус Видео) + MVO + AVO + Original Eng

Ответить на тему
 
Автор Сообщение

user ®

Стаж: 7 лет 7 месяцев

Сообщений: 20008

Пост Пост: #1 от 14-Авг-2013 06:45

[Цитировать]

Роб Рой / Rob Roy
Страна: США, Великобритания
Жанр: Драма, военный, приключения, история, экранизация
Год выпуска: 1995
Продолжительность: 02:19:17
Перевод: Профессиональный (многоголосый закадровый) ОРТ
Перевод 2: Профессиональный (многоголосый закадровый) НТВ+
Перевод 3: Профессиональный (многоголосый закадровый) Варус Видео
Перевод 4: Профессиональный (многоголосый закадровый)
Перевод 5: Авторский одноголосый (Гаврилов)
Cубтитры: нет
Оригинальная аудиодорожка: английский
Режиссер: Майкл Кейтон-Джонс / Michael Caton-Jones
В ролях: Лиам Нисон, Джессика Лэнг, Джон Херт, Тим Рот, Эрик Столц, Эндрю Кир, Брайан Кокс, Брайан МакКарди, Гилберт Мартин, Вики Массон, Джилли Гилкрист, Джейсон Флеминг, Ивэн Стюарт, Дэвид Хеймен, Брайан МакАртур, Дэвид Брукс Палмер, Мира МакФадьен, Карен Мэтисон, Ширли Хендерсон, Джон Мурта, Билл Гардинер, Ричард Боунхилл
Описание: Если ты не просто отец семейства, а глава клана гордых шотландцев, свято верящих в то, что именно ты, Роберт Рой МакГрегор, сумеешь о них позаботиться и прокормить, то самое время "брать быка за рога" и решиться на заем большой суммы денег у богатого лэндлорда для последующей перепродажи с выгодой приобретенного на них скота... Но что, если это простое по теперешним меркам предприятие внезапно приведет к возникновению угрозы навсегда потерять честь, достоинство и... любовь? Эти вещи продаются?...
Сэмпл: http://webfile.ru/6637134?attempt=1
Релиз:
Тип релиза: BDRip 720p
Контейнер: MKV
Видео: MPEG-4 AVC, 4241 Кбит/с, 1280x544
Аудио #1: Русский (AC3, 2 ch, 192 Кбит/с, 48,0 КГц) / Профессиональный многоголосый (ОРТ)
Аудио #2: Русский (AC3, 2 ch, 192 Кбит/с, 48,0 КГц) / Профессиональный многоголосый (НТВ+)
Аудио #3: Русский (AC3, 2 ch, 192 Кбит/с, 48,0 КГц) / Профессиональный многоголосый (Варус Видео)
Аудио #4: Русский (AC3, 2 ch, 192 Кбит/с, 48,0 КГц) / Профессиональный многоголосый
Аудио #5: Русский (AC3, 2 ch, 192 Кбит/с, 48,0 КГц) / Авторский одноголосый (Гаврилов)
Аудио #6: Английский (AC3, 6 ch, 640 Кбит/с, 48,0 КГц)

MediaInfo

Общее
Уникальный идентификатор : 253882950277294173796600831288657617993 (0xBF0013DF9D660FE39645F38F0570A449)
Полное имя : C:\фильмы\Rob.Roi.1995.x264.BDRip.(720p) (***).mkv
Формат : Matroska
Версия формата : Version 2
Размер файла : 5,69 Гбайт
Продолжительность : 2 ч. 19 м.
Общий поток : 5843 Кбит/сек
Название фильма : Rob.Roi.1995.x264.BDRip.(720p).tahiy
Дата кодирования : UTC 2013-08-10 18:13:04
Программа кодирования : mkvmerge v5.7.0 ('The Whirlwind') built on Jul 29 2012 15:12:35
Библиотека кодирования : libebml v1.2.3 + libmatroska v1.3.0
Видео
Идентификатор : 1
Формат : AVC
Формат/Информация : Advanced Video Codec
Профиль формата : High@L4.1
Параметр CABAC формата : Да
Параметр ReFrames формата : 8 кадров
Идентификатор кодека : V_MPEG4/ISO/AVC
Продолжительность : 2 ч. 19 м.
Битрейт : 4241 Кбит/сек
Ширина : 1280 пикселей
Высота : 544 пикселя
Соотношение сторон : 2,35:1
Режим частоты кадров : Постоянный
Частота кадров : 23,976 кадра/сек
Цветовое пространство : YUV
Субдискретизация насыщенности : 4:2:0
Битовая глубина : 8 бит
Тип развёртки : Прогрессивная
Бит/(Пиксели*Кадры) : 0.254
Размер потока : 4,02 Гбайт (71%)
Заголовок : Rob.Roi.1995.x264.BDRip.(720p).tahiy
Библиотека кодирования : x264 core 130 r2273 b3065e6
Настройки программы : cabac=1 / ref=8 / deblock=1:-2:-2 / analyse=0x3:0x113 / me=umh / subme=10 / psy=1 / psy_rd=1.00:0.20 / mixed_ref=1 / me_range=32 / chroma_me=1 / trellis=2 / 8x8dct=1 / cqm=0 / deadzone=21,11 / fast_pskip=0 / chroma_qp_offset=-3 / threads=3 / lookahead_threads=1 / sliced_threads=0 / nr=0 / decimate=0 / interlaced=0 / bluray_compat=0 / constrained_intra=0 / bframes=6 / b_pyramid=2 / b_adapt=2 / b_bias=0 / direct=3 / weightb=1 / open_gop=0 / weightp=2 / keyint=240 / keyint_min=23 / scenecut=40 / intra_refresh=0 / rc_lookahead=40 / rc=2pass / mbtree=0 / bitrate=4241 / ratetol=1.0 / qcomp=0.60 / qpmin=0 / qpmax=69 / qpstep=4 / cplxblur=20.0 / qblur=0.5 / vbv_maxrate=50000 / vbv_bufsize=62500 / nal_hrd=none / ip_ratio=1.40 / pb_ratio=1.30 / aq=1:1.00
Язык : English
Default : Да
Forced : Нет
Аудио #1
Идентификатор : 2
Формат : AC-3
Формат/Информация : Audio Coding 3
Расширение режима : CM (complete main)
Параметр Endianness формата : Big
Идентификатор кодека : A_AC3
Продолжительность : 2 ч. 19 м.
Вид битрейта : Постоянный
Битрейт : 192 Кбит/сек
Каналы : 2 канала
Расположение каналов : Front: L R
Частота : 48,0 КГц
Битовая глубина : 16 бит
Метод сжатия : С потерями
Размер потока : 191 Мбайт (3%)
Заголовок : Профессиональный многоголосый (ОРТ)
Язык : Russian
Default : Да
Forced : Нет
Аудио #2
Идентификатор : 3
Формат : AC-3
Формат/Информация : Audio Coding 3
Расширение режима : CM (complete main)
Параметр Endianness формата : Big
Идентификатор кодека : A_AC3
Продолжительность : 2 ч. 19 м.
Вид битрейта : Постоянный
Битрейт : 192 Кбит/сек
Каналы : 2 канала
Расположение каналов : Front: L R
Частота : 48,0 КГц
Битовая глубина : 16 бит
Метод сжатия : С потерями
Размер потока : 191 Мбайт (3%)
Заголовок : Профессиональный многоголосый (НТВ+)
Язык : Russian
Default : Нет
Forced : Нет
Аудио #3
Идентификатор : 4
Формат : AC-3
Формат/Информация : Audio Coding 3
Расширение режима : CM (complete main)
Параметр Endianness формата : Big
Идентификатор кодека : A_AC3
Продолжительность : 2 ч. 19 м.
Вид битрейта : Постоянный
Битрейт : 192 Кбит/сек
Каналы : 2 канала
Расположение каналов : Front: L R
Частота : 48,0 КГц
Битовая глубина : 16 бит
Метод сжатия : С потерями
Размер потока : 191 Мбайт (3%)
Заголовок : Профессиональный многоголосый (Варус Видео)
Язык : Russian
Default : Нет
Forced : Нет
Аудио #4
Идентификатор : 5
Формат : AC-3
Формат/Информация : Audio Coding 3
Расширение режима : CM (complete main)
Параметр Endianness формата : Big
Идентификатор кодека : A_AC3
Продолжительность : 2 ч. 19 м.
Вид битрейта : Постоянный
Битрейт : 192 Кбит/сек
Каналы : 2 канала
Расположение каналов : Front: L R
Частота : 48,0 КГц
Битовая глубина : 16 бит
Метод сжатия : С потерями
Размер потока : 191 Мбайт (3%)
Заголовок : Профессиональный многоголосый
Язык : Russian
Default : Нет
Forced : Нет
Аудио #5
Идентификатор : 6
Формат : AC-3
Формат/Информация : Audio Coding 3
Расширение режима : CM (complete main)
Параметр Endianness формата : Big
Идентификатор кодека : A_AC3
Продолжительность : 2 ч. 19 м.
Вид битрейта : Постоянный
Битрейт : 192 Кбит/сек
Каналы : 2 канала
Расположение каналов : Front: L R
Частота : 48,0 КГц
Битовая глубина : 16 бит
Метод сжатия : С потерями
Размер потока : 191 Мбайт (3%)
Заголовок : Авторский одноголосый (Гаврилов)
Язык : Russian
Default : Нет
Forced : Нет
Аудио #6
Идентификатор : 7
Формат : AC-3
Формат/Информация : Audio Coding 3
Расширение режима : CM (complete main)
Параметр Endianness формата : Big
Идентификатор кодека : A_AC3
Продолжительность : 2 ч. 19 м.
Вид битрейта : Постоянный
Битрейт : 640 Кбит/сек
Каналы : 6 каналов
Расположение каналов : Front: L C R, Side: L R, LFE
Частота : 48,0 КГц
Битовая глубина : 16 бит
Метод сжатия : С потерями
Размер потока : 638 Мбайт (11%)
Заголовок : English 640
Язык : English
Default : Нет
Forced : Нет

Скриншоты

Скачать

Скачать торрент!

Как скачивать? · Что такое торрент? · Рейтинг и ограничения

Сайт не распространяет и не хранит электронные версии произведений, а лишь предоставляет доступ к создаваемому пользователями каталогу ссылок на торрент-файлы, которые содержат только списки хеш-сумм

[Профиль] [ЛС]
Показать сообщения:    
Ответить на тему

Текущее время: Сегодня 22:19

Часовой пояс: GMT + 4



Вы не можете начинать темы
Вы не можете отвечать на сообщения
Вы не можете редактировать свои сообщения
Вы не можете удалять свои сообщения
Вы не можете голосовать в опросах
Вы не можете прикреплять файлы к сообщениям
Вы не можете скачивать файлы