Кровью и потом: Анаболики / Pain & Gain (Майкл Бэй / Michael Bay) [2013, США, боевик, триллер, криминал, комедия, драма, BDRip 1080p] VO (Вячеслав zamez) + Original Eng + Sub Eng

Ответить на тему
 
Автор Сообщение

user ®

Стаж: 7 лет 7 месяцев

Сообщений: 20008

Пост Пост: #1 от 14-Авг-2013 06:45

[Цитировать]

Кровью и потом: Анаболики / Pain & Gain«Мечтай по-крупному» Год выпуска: 2013
Страна: США
Жанр: боевик, триллер, криминал, комедия, драма
Продолжительность: 02:09:36
Перевод: Одноголосый закадровый [url=http://***/forum/profile.php?mode=viewprofile&u=4908413]Вячеслав zamez[/url] (по переводу Виталия Богданова) Ненормативная лексика
Оригинальная аудиодорожка: Английская
Субтитры: Английские (Full, SDH)
Студия: Paramount Pictures, De Line Pictures
Режиссёр: Майкл Бэй / Michael Bay
В ролях: Марк Уолберг, Дуэйн Джонсон, Энтони Маки, Тони Шэлоуб, Эд Харрис, Кен Жонг, Иоланта Кабау ван Касберген, Виорика Пинеда, Роб Кордри, Ребел Уилсон и др.
Описание: Однажды тренеру по фитнесу надоело ходить в трениках. Он решил круто изменить свою судьбу и разбогатеть. Нашел двух других незадачливых качков и предложил им план похищения своего клиента-миллионера. Но если в организме мышц больше, чем мозгов, то даже самый лучший план, подсмотренный в экшен-боевике, может не сработать…
Качество: BDRip 1080p (HDWinG)
Контейнер: MKV
Видео кодек: MPEG-4 AVC Video
Аудио кодек: DTS / AC3
Видео: MPEG-4 AVC Video / 14455 kbps / 1920x800p / 23,976 fps / 2.40:1 / 0.384 bit/pix / High@L4.1
Аудио 1: Русский / AC3 / 5.1 / 48 kHz / 384 kbps / 16-bit / Одноголосый закадровый Вячеслав zamez
Аудио 2: English / DTS / 5.1 / 48 kHz / 1536 kbps / 24-bit / Оригинал
Навигация по главам: да

Скриншот с названием фильма

Скриншоты

MediaInfo

C:\GORESEWAGE\Кровью и потом - Анаболики (Pain & Gain) 2013, США, боевик, триллер, криминал, комедия, драма, BDRip 1080p GORESEWAGE.mkv
General
Unique ID : 175102718766162983856831749742505091150 (0x83BB8E93B8773B3690C4D10708C9E04E)
Complete name : C:\GORESEWAGE\Кровью и потом - Анаболики (Pain & Gain) 2013, США, боевик, триллер, криминал, комедия, драма, BDRip 1080p GORESEWAGE.mkv
Format : Matroska
Format version : Version 4 / Version 2
File size : 14.8 GiB
Duration : 2h 9mn
Overall bit rate : 16.4 Mbps
Movie name : GORESEWAGE
Encoded date : UTC 2013-08-14 02:01:32
Writing application : mkvmerge v6.1.0 ('Old Devil') built on Mar 31 2013 15:21:18
Writing library : libebml v1.3.0 + libmatroska v1.4.0
Video #1
ID : 1
Format : AVC
Format/Info : Advanced Video Codec
Format profile : High@L4.1
Format settings, CABAC : Yes
Format settings, ReFrames : 5 frames
Codec ID : V_MPEG4/ISO/AVC
Duration : 2h 9mn
Bit rate : 14.1 Mbps
Width : 1 920 pixels
Height : 800 pixels
Display aspect ratio : 2.40:1
Frame rate mode : Constant
Frame rate : 23.976 fps
Color space : YUV
Chroma subsampling : 4:2:0
Bit depth : 8 bits
Scan type : Progressive
Bits/(Pixel*Frame) : 0.384
Stream size : 12.8 GiB (86%)
Title : GORESEWAGE
Writing library : x264 core 132 r2323+704+51 d571b1c tMod [8-bit@4:2:0 X86_64]
Encoding settings : cabac=1 / ref=5 / deblock=1:-3:-3 / analyse=0x3:0x133 / me=umh / subme=11 / psy=1 / fade_compensate=0.00 / psy_rd=1.10:0.00 / mixed_ref=1 / me_range=48 / chroma_me=1 / trellis=2 / 8x8dct=1 / cqm=0 / deadzone=21,11 / fast_pskip=0 / chroma_qp_offset=-2 / threads=36 / lookahead_threads=6 / sliced_threads=0 / nr=0 / decimate=0 / interlaced=0 / bluray_compat=0 / constrained_intra=0 / fgo=0 / bframes=8 / b_pyramid=2 / b_adapt=2 / b_bias=0 / direct=3 / weightb=1 / open_gop=0 / weightp=2 / keyint=240 / keyint_min=24 / scenecut=40 / intra_refresh=0 / rc=crf / mbtree=0 / crf=18.2000 / qcomp=0.70 / qpmin=0 / qpmax=69 / qpstep=4 / ip_ratio=1.15 / pb_ratio=1.15 / aq=4:0.85 / aq-sensitivity=10.00 / aq-factor=1.00:1.00:1.00 / aq2=0 / aq3=0
Language : English
Default : Yes
Forced : No
Audio #2
ID : 2
Format : AC-3
Format/Info : Audio Coding 3
Mode extension : CM (complete main)
Format settings, Endianness : Big
Codec ID : A_AC3
Duration : 2h 9mn
Bit rate mode : Constant
Bit rate : 384 Kbps
Channel(s) : 6 channels
Channel positions : Front: L C R, Side: L R, LFE
Sampling rate : 48.0 KHz
Bit depth : 16 bits
Compression mode : Lossy
Stream size : 356 MiB (2%)
Title : Одноголосый закадровый Вячеслав zamez
Language : Russian
Default : Yes
Forced : No
Audio #3
ID : 3
Format : DTS
Format/Info : Digital Theater Systems
Codec ID : A_DTS
Duration : 2h 9mn
Bit rate mode : Constant
Bit rate : 1 510 Kbps
Channel(s) : 6 channels
Channel positions : Front: L C R, Side: L R, LFE
Sampling rate : 48.0 KHz
Bit depth : 24 bits
Compression mode : Lossy
Stream size : 1.37 GiB (9%)
Title : Оригинал
Language : English
Default : No
Forced : No
Text #4
ID : 4
Format : UTF-8
Codec ID : S_TEXT/UTF8
Codec ID/Info : UTF-8 Plain Text
Title : Full
Language : English
Default : No
Forced : No
Text #5
ID : 5
Format : UTF-8
Codec ID : S_TEXT/UTF8
Codec ID/Info : UTF-8 Plain Text
Title : SDH
Language : English
Default : No
Forced : No
Menu
00:00:00.000 : en:00:00:00.000
00:02:34.654 : en:00:02:34.654
00:09:33.990 : en:00:09:33.990
00:16:08.676 : en:00:16:08.676
00:22:05.658 : en:00:22:05.658
00:25:50.841 : en:00:25:50.841
00:32:45.505 : en:00:32:45.505
00:38:52.789 : en:00:38:52.789
00:46:19.652 : en:00:46:19.652
00:51:40.973 : en:00:51:40.973
00:58:11.738 : en:00:58:11.738
01:04:03.548 : en:01:04:03.548
01:10:32.311 : en:01:10:32.311
01:16:17.281 : en:01:16:17.281
01:21:20.542 : en:01:21:20.542
01:29:00.085 : en:01:29:00.085
01:37:06.029 : en:01:37:06.029
01:42:17.715 : en:01:42:17.715
01:49:10.461 : en:01:49:10.461
01:56:34.487 : en:01:56:34.487
02:01:42.295 : en:02:01:42.295

Полноразмерный постер

Скачать

Скачать торрент!

Как скачивать? · Что такое торрент? · Рейтинг и ограничения

Сайт не распространяет и не хранит электронные версии произведений, а лишь предоставляет доступ к создаваемому пользователями каталогу ссылок на торрент-файлы, которые содержат только списки хеш-сумм

[Профиль] [ЛС]
Показать сообщения:    
Ответить на тему

Текущее время: Сегодня 01:45

Часовой пояс: GMT + 4



Вы не можете начинать темы
Вы не можете отвечать на сообщения
Вы не можете редактировать свои сообщения
Вы не можете удалять свои сообщения
Вы не можете голосовать в опросах
Вы не можете прикреплять файлы к сообщениям
Вы не можете скачивать файлы