Кровью и потом: Анаболики / Pain & Gain (Майкл Бэй / Michael Bay) [2013, США, Боевик, триллер, комедия, BDRip 720p] VO (zamez) + Sub Eng + Original Eng

Ответить на тему
 
Автор Сообщение

user ®

Стаж: 7 лет 7 месяцев

Сообщений: 20008

Пост Пост: #1 от 14-Авг-2013 01:35

[Цитировать]

Кровью и потом: Анаболики / Pain & Gain Страна: США
Жанр: Боевик, триллер, комедия
Год выпуска: 2013
Продолжительность: 02:09:36
Перевод: Одноголосый закадровый (zamez)
Cубтитры: английские
Оригинальная аудиодорожка: английский
Режиссер: Майкл Бэй / Michael Bay
В ролях: Марк Уолберг, Дуэйн Джонсон, Энтони Маки, Тони Шэлуб, Эд Харрис, Кен Жонг, Иоланта Кабау ван Касберген, Виорика Пинеда, Роб Кордри, Ребел Уилсо
Описание: Однажды тренеру по фитнесу надоело ходить в трениках. Он решил круто изменить свою судьбу и разбогатеть. Нашел двух других незадачливых качков и предложил им план похищения своего клиента-миллионера. Но если в организме мышц больше, чем мозгов, то даже самый лучший план, подсмотренный в экшен-боевике, может не сработать…
Сэмпл: http://multi-up.com/893680
Тип релиза: BDRip 720p
Контейнер: MKV
Видео: AVC, 1280x536 (2,40:1), 23,976 кадра/сек, 4186 Кбит/сек
Аудио: AC3, 48,0 КГц, 6 каналов, 384 Кбит/сек
Аудио 2: AC3, 48,0 КГц, 6 каналов, 448 Кбит/сек

MediaInfo

Формат : Matroska
Версия формата : Version 4 / Version 2
Размер файла : 4,54 Гбайт
Продолжительность : 2 ч. 9 м.
Общий поток : 5019 Кбит/сек
Дата кодирования : UTC 2013-08-13 18:07:22
Программа кодирования : mkvmerge v6.3.0 ('You can't stop me!') built on Jun 28 2013 20:09:41
Библиотека кодирования : libebml v1.3.0 + libmatroska v1.4.0
Видео
Идентификатор : 1
Формат : AVC
Формат/Информация : Advanced Video Codec
Профиль формата : High@L4.1
Параметр CABAC формата : Да
Параметр ReFrames формата : 5 кадров
Идентификатор кодека : V_MPEG4/ISO/AVC
Продолжительность : 2 ч. 9 м.
Битрейт : 4186 Кбит/сек
Ширина : 1280 пикселей
Высота : 536 пикселей
Соотношение сторон : 2,40:1
Режим частоты кадров : Постоянный
Частота кадров : 23,976 кадра/сек
Цветовое пространство : YUV
Субдискретизация насыщенности : 4:2:0
Битовая глубина : 8 бит
Тип развёртки : Прогрессивная
Бит/(Пиксели*Кадры) : 0.254
Размер потока : 3,70 Гбайт (81%)
Заголовок : Pain & Gain (2013) BDRip 720p
Библиотека кодирования : x264 core 135 r2345kMod f0c1c53
Настройки программы : cabac=1 / ref=5 / deblock=1:-3:-3 / analyse=0x3:0x113 / me=umh / subme=8 / psy=1 / fade_compensate=0.00 / psy_rd=1.00:0.00 / mixed_ref=1 / me_range=16 / chroma_me=1 / trellis=1 / 8x8dct=1 / cqm=0 / deadzone=21,11 / fast_pskip=1 / chroma_qp_offset=-2 / threads=12 / lookahead_threads=2 / sliced_threads=0 / nr=0 / decimate=1 / interlaced=0 / bluray_compat=0 / constrained_intra=0 / bframes=3 / b_pyramid=2 / b_adapt=2 / b_bias=0 / direct=3 / weightb=1 / open_gop=0 / weightp=2 / keyint=240 / keyint_min=24 / scenecut=40 / intra_refresh=0 / rc_lookahead=50 / rc=2pass / mbtree=1 / bitrate=4186 / ratetol=1.0 / qcomp=0.60 / qpmin=0 / qpmax=69 / qpstep=4 / cplxblur=20.0 / qblur=0.5 / ip_ratio=1.40 / aq=1:1.00
Default : Да
Forced : Нет
Аудио #1
Идентификатор : 2
Формат : AC-3
Формат/Информация : Audio Coding 3
Расширение режима : CM (complete main)
Параметр Endianness формата : Big
Идентификатор кодека : A_AC3
Продолжительность : 2 ч. 9 м.
Вид битрейта : Постоянный
Битрейт : 384 Кбит/сек
Каналы : 6 каналов
Расположение каналов : Front: L C R, Side: L R, LFE
Частота : 48,0 КГц
Битовая глубина : 16 бит
Метод сжатия : С потерями
Размер потока : 356 Мбайт (8%)
Язык : Russian
Default : Да
Forced : Нет
Аудио #2
Идентификатор : 3
Формат : AC-3
Формат/Информация : Audio Coding 3
Расширение режима : CM (complete main)
Параметр Endianness формата : Big
Идентификатор кодека : A_AC3
Продолжительность : 2 ч. 9 м.
Вид битрейта : Постоянный
Битрейт : 448 Кбит/сек
Каналы : 6 каналов
Расположение каналов : Front: L C R, Side: L R, LFE
Частота : 48,0 КГц
Битовая глубина : 16 бит
Метод сжатия : С потерями
Размер потока : 415 Мбайт (9%)
Язык : English
Default : Нет
Forced : Нет
Текст
Идентификатор : 4
Формат : UTF-8
Идентификатор кодека : S_TEXT/UTF8
Идентификатор кодека/Информация : UTF-8 Plain Text
Язык : English
Default : Нет
Forced : Нет
Меню
00:00:00.000 : en:00:00:00.000
00:02:34.654 : en:00:02:34.654
00:09:33.990 : en:00:09:33.990
00:16:08.676 : en:00:16:08.676
00:22:05.658 : en:00:22:05.658
00:25:50.841 : en:00:25:50.841
00:32:45.505 : en:00:32:45.505
00:38:52.789 : en:00:38:52.789
00:46:19.652 : en:00:46:19.652
00:51:40.973 : en:00:51:40.973
00:58:11.738 : en:00:58:11.738
01:04:03.548 : en:01:04:03.548
01:10:32.311 : en:01:10:32.311
01:16:17.281 : en:01:16:17.281
01:21:20.542 : en:01:21:20.542
01:29:00.085 : en:01:29:00.085
01:37:06.029 : en:01:37:06.029
01:42:17.715 : en:01:42:17.715
01:49:10.461 : en:01:49:10.461
01:56:34.487 : en:01:56:34.487
02:01:42.295 : en:02:01:42.295

Скриншоты

Скачать

Скачать торрент!

Как скачивать? · Что такое торрент? · Рейтинг и ограничения

Сайт не распространяет и не хранит электронные версии произведений, а лишь предоставляет доступ к создаваемому пользователями каталогу ссылок на торрент-файлы, которые содержат только списки хеш-сумм

[Профиль] [ЛС]
Показать сообщения:    
Ответить на тему

Текущее время: Сегодня 18:19

Часовой пояс: GMT + 4



Вы не можете начинать темы
Вы не можете отвечать на сообщения
Вы не можете редактировать свои сообщения
Вы не можете удалять свои сообщения
Вы не можете голосовать в опросах
Вы не можете прикреплять файлы к сообщениям
Вы не можете скачивать файлы