Близкое знакомство с кунг-фу / Большой побег / The Close Kung Fu Encounter / Great Escape / Daetalchul (Ким Си-Хен / Kim Si-Hyeon) [1975, Южная Корея, боевые искусства, VHSRip] AVO (Юрий Живов)

Ответить на тему
 
Автор Сообщение

user ®

Стаж: 11 лет

Сообщений: 15151

Пост Пост: #1 от 13-Авг-2013 22:25

[Цитировать]

Близкое знакомство с кунг-фу / Большой побег / The Close Kung Fu Encounter / Great Escape / Daetalchul
Страна: Южная Корея
Жанр: боевые искусства
Год выпуска: 1975
Продолжительность: 01:27:48
Перевод: Авторский (одноголосый закадровый) Юрий Живов
Cубтитры: нет
Режиссер: Ким Си-Хен / Kim Si-Hyeon
В ролях: Роджер Мао, Хван Ин Сик, Джеки Чанг, Ким Ки-Чжу, Ли И-Минь, Хонг Сунг-Чунг
Описание: Кан, эксперт по кунг-Фу, отправляется с китайской армией по репортации некоторого запаса золотой казны из Нанкина в Чунцин. В Шанхае Кан был очарован некой красавицей и должен встретиться с ней, но слишком поздно узнаёт, что она любовница Сузуки, японского начальника разведки. Кана ловят и сажают в тюрьму, где он знакомится с Ханом, человеком из казначейства, который отвечает за репартацию золота. Они оба пытаются бежать, но Хана застреливают, Кан убегает. Сузуки приказывает лейтенанту Моки поймать особо опасного преступника.
Благодарность: За исходник благодарность выражается loxaba, за описание - шурик 555.
Сэмпл: http://multi-up.com/893528
Качество видео: VHSRip
Формат видео: AVI
Видео: 672x432 (1.56:1), 25 fps, XviD build 50 ~2090 kbps avg, 0.29 bit/pixel
Аудио: 48 kHz, MPEG Layer 3, 2 ch, ~128.00 kbps avg

MediaInfo

Format : AVI
Format/Info : Audio Video Interleave
File size : 1,37 Гбайт
Duration : 1 ч. 27 м.
Overall bit rate : 2228 Кбит/сек
Writing application : VirtualDubMod 1.5.10.3 | www.virtualdub-fr.org || (build 2550/release)
Writing library : VirtualDubMod build 2550/release
Видео
ID : 0
Format : MPEG-4 Visual
Format profile : Advanced Simple@L5
Format settings, BVOP : 2
Format settings, QPel : Нет
Format settings, GMC : Без точки перехода
Format settings, Matrix : Default (MPEG)
Codec ID : XVID
Codec ID/Hint : XviD
Duration : 1 ч. 27 м.
Bit rate : 2091 Кбит/сек
Width : 672 пикселя
Height : 432 пикселя
Display aspect ratio : 16:10
Frame rate : 25,000 кадров/сек
Color space : YUV
Chroma subsampling : 4:2:0
Bit depth : 8 бит
Scan type : Прогрессивная
Compression mode : С потерями
Bits/(Pixel*Frame) : 0.288
Stream size : 1,28 Гбайт (94%)
Writing library : XviD 1.2.1 (UTC 2008-12-04)
Аудио
ID : 1
Format : MPEG Audio
Format version : Version 1
Format profile : Layer 3
Codec ID : 55
Codec ID/Hint : MP3
Duration : 1 ч. 27 м.
Bit rate mode : Постоянный
Bit rate : 128 Кбит/сек
Channel(s) : 2 канала
Sampling rate : 48,0 КГц
Compression mode : С потерями
Stream size : 80,4 Мбайт (6%)
Alignment : Соединение по промежуткам
Interleave, duration : 40 мс. (1,00 видеокадр)
Interleave, preload duration : 504 мс.
Writing library : LAME3.99r
Encoding settings : -m s -V 4 -q 2 -lowpass 17 -b 128

Скриншот c названием фильма

Скриншоты

Скачать

Скачать торрент! Близкое знакомство с кунг-фу / Большой побег / The Close Kung Fu Encounter / Great Escape / Daetalchul (Ким Си-Хен / Kim Si-Hyeon) [1975, Южная Корея, боевые искусства, VHSRip] AVO (Юрий Живов)

Как скачивать? · Что такое торрент? · Рейтинг и ограничения

Сайт не распространяет и не хранит электронные версии произведений, а лишь предоставляет доступ к создаваемому пользователями каталогу ссылок на торрент-файлы, которые содержат только списки хеш-сумм

[Профиль] [ЛС]
Показать сообщения:    
Ответить на тему

Текущее время: Сегодня 11:29

Часовой пояс: GMT + 4



Вы не можете начинать темы
Вы не можете отвечать на сообщения
Вы не можете редактировать свои сообщения
Вы не можете удалять свои сообщения
Вы не можете голосовать в опросах
Вы не можете прикреплять файлы к сообщениям
Вы не можете скачивать файлы