Автострада / Motorway / Che sau (Поу-Сои Чинг / Pou-Soi Cheang) [2012, Криминал, боевик, BDRip-AVC] AVO ( Сербин) + Sub (rus., eng.)

Ответить на тему
 
Автор Сообщение

user ®

Стаж: 13 лет

Сообщений: 15071

Пост Пост: #1 от 13-Авг-2013 22:25

[Цитировать]

Автострада / Motorway / Che sau
Страна: Гонконг / Media Asia Films, Milky Way Image Company, Sil-Metropole Organisation
Жанр: Криминал, боевик
Год выпуска: 2012
Продолжительность: 01:29:10-Перевод: Авторский (одноголосый закадровый) Ю. Сербин
Cубтитры: русские, английские
Формат субтитров: softsub (SRT)
Оригинальная аудиодорожка: нет-Режиссер: Поу-Сои Чинг / Pou-Soi Cheang
В ролях: Энтони Вонг, Шон Юе, Го Сяодун, Барби Сюй, Джози Хо, Ка Танг Лам, Мишель Йе
Описание: Есть четыре персонажа - два копа и два преступника. Первый коп - молодой и борзый, он любит гонять по автостраде за нарушителями, поэтому на собственные деньги прокачивает свою патрульную машину. Второй - бывалый ветеран, три дня до пенсии. Он способен делать на дороге крутые штуки; знает, что молодой напарник еще не созрел для настоящего драйва, но предпочитает не лезть в бутылку без лишнего повода. Первый преступник - налетчик и стрелок, безжалостный убийца, профессиональный «гастролер». Он случайно попадает в гонконгский КПЗ, поэтому срочно вызывает с материка своего напарника. Напарник - опытный водила для гоп-стопов с 20-летним стажем - организует побег своего партнера. После кровавой бани, учиненной в стенах КПЗ, преступникам надо сделать последний большой гоп-стоп и сбежать из города, все выезды из которого перекрыты полицейскими патрулями.- -Релиз от:
Автор рипа: potroks-Качество видео: BDRip-AVC [Blu-Ray Remux]
Формат видео: MKV
Видео: х.264, 1096x592 (1,85:1), 24,000 fps, 1896 Кbps, 0.122 bit/pixel
Аудио: 48 kHz, AC3 Dolby Digital, 3/2 (L,C,R,l,r) + LFE ch, 448.00 kbps

MediaInfo

Общее
Уникальный идентификатор : 181944810484345284890295896477645473260 (0x88E14BBE621543C18A67C2215C8105EC)
Полное имя : Avtostrada.2012.RUS.BDRip.x264.-HELLYWOOD.mkv
Формат : Matroska
Версия формата : Version 4 / Version 2
Размер файла : 1,46 Гбайт
Продолжительность : 1 ч. 29 м.
Общий поток : 2344 Кбит/сек
Название фильма : HELLYWOOD - rip by potroks
Дата кодирования : UTC 2013-08-12 05:47:49
Программа кодирования : mkvmerge v5.9.0 ('On The Loose') built on Dec 15 2012 16:39:58
Библиотека кодирования : libebml v1.3.0 + libmatroska v1.4.0
Видео
Идентификатор : 1
Формат : AVC
Формат/Информация : Advanced Video Codec
Профиль формата : High@L4.1
Параметр CABAC формата : Да
Параметр ReFrames формата : 11 кадров
Идентификатор кодека : V_MPEG4/ISO/AVC
Продолжительность : 1 ч. 29 м.
Битрейт : 1896 Кбит/сек
Ширина : 1096 пикселей
Высота : 592 пикселя
Соотношение сторон : 1,85:1
Режим частоты кадров : Постоянный
Частота кадров : 24,000 кадра/сек
Цветовое пространство : YUV
Субдискретизация насыщенности : 4:2:0
Битовая глубина : 8 бит
Тип развёртки : Прогрессивная
Бит/(Пиксели*Кадры) : 0.122
Размер потока : 1,15 Гбайт (79%)
Заголовок : Che sau
Библиотека кодирования : x264 core 130 r2273 b3065e6
Настройки программы : cabac=1 / ref=11 / deblock=1:-2:-1 / analyse=0x3:0x133 / me=umh / subme=11 / psy=1 / psy_rd=1.08:0.04 / mixed_ref=1 / me_range=32 / chroma_me=1 / trellis=2 / 8x8dct=1 / cqm=0 / deadzone=21,11 / fast_pskip=0 / chroma_qp_offset=-3 / threads=6 / lookahead_threads=1 / sliced_threads=0 / nr=0 / decimate=1 / interlaced=0 / bluray_compat=0 / constrained_intra=0 / bframes=12 / b_pyramid=2 / b_adapt=2 / b_bias=0 / direct=3 / weightb=1 / open_gop=0 / weightp=2 / keyint=250 / keyint_min=23 / scenecut=40 / intra_refresh=0 / rc_lookahead=100 / rc=2pass / mbtree=1 / bitrate=1896 / ratetol=1.0 / qcomp=0.70 / qpmin=0 / qpmax=69 / qpstep=4 / cplxblur=20.0 / qblur=0.5 / vbv_maxrate=20000 / vbv_bufsize=25000 / nal_hrd=none / ip_ratio=1.35 / aq=1:0.80
Язык : Chinese
Default : Да
Forced : Нет
Аудио
Идентификатор : 2
Формат : AC-3
Формат/Информация : Audio Coding 3
Расширение режима : CM (complete main)
Параметр Endianness формата : Big
Идентификатор кодека : A_AC3
Продолжительность : 1 ч. 29 м.
Вид битрейта : Постоянный
Битрейт : 448 Кбит/сек
Каналы : 6 каналов
Расположение каналов : Front: L C R, Side: L R, LFE
Частота : 48,0 КГц
Битовая глубина : 16 бит
Метод сжатия : С потерями
Размер потока : 286 Мбайт (19%)
Заголовок : AVO | DD 5.1 @ 448 kbps - Сербин
Язык : Russian
Default : Да
Forced : Да
Текст #1
Идентификатор : 3
Формат : UTF-8
Идентификатор кодека : S_TEXT/UTF8
Идентификатор кодека/Информация : UTF-8 Plain Text
Язык : English
Default : Нет
Forced : Нет
Текст #2
Идентификатор : 4
Формат : UTF-8
Идентификатор кодека : S_TEXT/UTF8
Идентификатор кодека/Информация : UTF-8 Plain Text
Язык : Russian
Default : Нет
Forced : Нет

log@x.264

x264 [info]: frame I:853 Avg QP:14.84 size: 57497
x264 [info]: frame P:31157 Avg QP:17.97 size: 19059
x264 [info]: frame B:96410 Avg QP:19.92 size: 6474
x264 [info]: consecutive B-frames: 3.5% 4.8% 12.2% 16.0% 18.1% 39.0% 4.0% 0.7% 0.7% 0.3% 0.1% 0.2% 0.4%
x264 [info]: mb I I16..4: 15.0% 64.8% 20.2%
x264 [info]: mb P I16..4: 1.9% 5.7% 1.1% P16..4: 34.9% 37.2% 8.4% 1.2% 0.1% skip: 9.5%
x264 [info]: mb B I16..4: 0.2% 0.5% 0.1% B16..8: 37.9% 16.7% 1.7% direct: 3.3% skip:39.6% L0:43.4% L1:49.3% BI: 7.3%
x264 [info]: 8x8 transform intra:65.1% inter:68.8%
x264 [info]: direct mvs spatial:97.9% temporal:2.1%
x264 [info]: coded y,uvDC,uvAC intra: 64.8% 65.9% 44.9% inter: 14.1% 15.2% 2.8%
x264 [info]: i16 v,h,dc,p: 31% 21% 6% 43%
x264 [info]: i8 v,h,dc,ddl,ddr,vr,hd,vl,hu: 6% 8% 8% 11% 15% 13% 15% 11% 14%
x264 [info]: i4 v,h,dc,ddl,ddr,vr,hd,vl,hu: 8% 12% 8% 10% 14% 11% 14% 10% 14%
x264 [info]: i8c dc,h,v,p: 32% 37% 16% 15%
x264 [info]: Weighted P-Frames: Y:7.0% UV:2.9%
x264 [info]: ref P L0: 49.1% 6.8% 17.7% 7.1% 5.2% 4.0% 3.3% 1.9% 1.6% 1.5% 1.4% 0.5% 0.0%
x264 [info]: ref B L0: 73.0% 11.9% 6.2% 2.7% 2.1% 1.6% 1.3% 0.7% 0.5% 0.2%
x264 [info]: ref B L1: 92.0% 8.0%
x264 [info]: kb/s:1894.30
x264 [total]: encoded 128420 frames, 4.57 fps, 1894.30 kb/s
TIME
------------------------------
Общее время кодирования: 9 hour 19 min 12 sec
Файл получился на: 1209.23 mb

Скриншоты



Скачать

Скачать торрент! Автострада / Motorway / Che sau (Поу-Сои Чинг / Pou-Soi Cheang) [2012, Криминал, боевик, BDRip-AVC] AVO ( Сербин) + Sub (rus., eng.)

Как скачивать? · Что такое торрент? · Рейтинг и ограничения

Сайт не распространяет и не хранит электронные версии произведений, а лишь предоставляет доступ к создаваемому пользователями каталогу ссылок на торрент-файлы, которые содержат только списки хеш-сумм

[Профиль] [ЛС]
Показать сообщения:    
Ответить на тему

Текущее время: Сегодня 22:10

Часовой пояс: GMT + 4



Вы не можете начинать темы
Вы не можете отвечать на сообщения
Вы не можете редактировать свои сообщения
Вы не можете удалять свои сообщения
Вы не можете голосовать в опросах
Вы не можете прикреплять файлы к сообщениям
Вы не можете скачивать файлы