Завершить историю / Очистить историю / Clear History (Грег Моттола / Greg Mottola) [2013, США, комедия, HDTVRip 720p] MVO

Ответить на тему
 
Автор Сообщение

user ®

Стаж: 7 лет 10 месяцев

Сообщений: 20008

Пост Пост: #1 от 13-Авг-2013 22:25

[Цитировать]

Завершить историю / Очистить историю / Clear History
Страна: США
Жанр: комедия
Год выпуска: 2013
Продолжительность: 01:40:05
Перевод: Профессиональный (многоголосый закадровый)
Cубтитры: нет
Режиссер: Грег Моттола / Greg Mottola
В ролях: Ларри Дэвид, Билл Хейдер, Джон Хэмм, Кейт Хадсон, Майкл Китон, Дэнни МакБрайд, Ева Мендес, Эми Райан, Дж.Б. Смув, Пол Шеер
Описание: Опальный бывший директор по маркетингу намерен мстить своему бывшему боссу, заработавшему миллионы на компании, которая когда-то принадлежала ему.
Качество видео: HDTVRip 720p
Формат видео: MKV
Видео: MPEG-4 AVC, 5129 Кбит/с, 1280x720, 16:9, 23,976 fps
Аудио: AC3, 2 ch, 192 Кбит/с, 48,0 КГц

MediaInfo

Общее
Уникальный идентификатор : 181586759274676693923766071416325900955 (0x889C5674C2DA3F3EBDC565AA535B8A9B)
Полное имя : E:\Zavershity.istoriyu.2013.x264.HDTVRip.mkv
Формат : Matroska
Версия формата : Version 2
Размер файла : 3,80 Гбайт
Продолжительность : 1 ч. 40 м.
Общий поток : 5429 Кбит/сек
Название фильма : rip.by.willaf
Дата кодирования : UTC 2013-08-11 15:03:29
Программа кодирования : mkvmerge v4.2.0 ('No Talking') сборка от Jul 28 2010 18:38:23
Библиотека кодирования : libebml v1.0.0 + libmatroska v1.0.0
Видео
Идентификатор : 1
Формат : AVC
Формат/Информация : Advanced Video Codec
Профиль формата : High@L4.1
Параметр CABAC формата : Да
Параметр ReFrames формата : 5 кадров
Режим смешивания : Header stripping
Идентификатор кодека : V_MPEG4/ISO/AVC
Продолжительность : 1 ч. 40 м.
Битрейт : 5129 Кбит/сек
Ширина : 1280 пикселей
Высота : 720 пикселей
Соотношение сторон : 16:9
Режим частоты кадров : Постоянный
Частота кадров : 23,976 кадра/сек
Цветовое пространство : YUV
Субдискретизация насыщенности : 4:2:0
Битовая глубина : 8 бит
Тип развёртки : Прогрессивная
Бит/(Пиксели*Кадры) : 0.232
Размер потока : 3,59 Гбайт (94%)
Библиотека кодирования : x264 core 135 r2345 f0c1c53
Настройки программы : cabac=1 / ref=5 / deblock=1:0:0 / analyse=0x3:0x113 / me=umh / subme=8 / psy=1 / psy_rd=1.00:0.00 / mixed_ref=1 / me_range=16 / chroma_me=1 / trellis=1 / 8x8dct=1 / cqm=0 / deadzone=21,11 / fast_pskip=1 / chroma_qp_offset=-2 / threads=18 / lookahead_threads=3 / sliced_threads=0 / nr=0 / decimate=1 / interlaced=0 / bluray_compat=0 / constrained_intra=0 / bframes=3 / b_pyramid=2 / b_adapt=2 / b_bias=0 / direct=3 / weightb=1 / open_gop=0 / weightp=2 / keyint=250 / keyint_min=23 / scenecut=40 / intra_refresh=0 / rc_lookahead=50 / rc=crf / mbtree=1 / crf=18.0 / qcomp=0.60 / qpmin=0 / qpmax=69 / qpstep=4 / ip_ratio=1.40 / aq=1:1.00
Язык : French
Default : Да
Forced : Нет
Коэффициенты матрицы : BT.709
Аудио
Идентификатор : 2
Формат : AC-3
Формат/Информация : Audio Coding 3
Расширение режима : CM (complete main)
Параметр Endianness формата : Big
Режим смешивания : Header stripping
Идентификатор кодека : A_AC3
Продолжительность : 1 ч. 40 м.
Вид битрейта : Постоянный
Битрейт : 192 Кбит/сек
Каналы : 2 канала
Расположение каналов : Front: L R
Частота : 48,0 КГц
Битовая глубина : 16 бит
Метод сжатия : С потерями
Размер потока : 137 Мбайт (4%)
Заголовок : AC3, 2 ch
Язык : Russian
Default : Да
Forced : Нет

Скриншот c названием фильма

Скриншоты


Скачать

Скачать торрент!

Как скачивать? · Что такое торрент? · Рейтинг и ограничения

Сайт не распространяет и не хранит электронные версии произведений, а лишь предоставляет доступ к создаваемому пользователями каталогу ссылок на торрент-файлы, которые содержат только списки хеш-сумм

[Профиль] [ЛС]
Показать сообщения:    
Ответить на тему

Текущее время: Сегодня 10:09

Часовой пояс: GMT + 4



Вы не можете начинать темы
Вы не можете отвечать на сообщения
Вы не можете редактировать свои сообщения
Вы не можете удалять свои сообщения
Вы не можете голосовать в опросах
Вы не можете прикреплять файлы к сообщениям
Вы не можете скачивать файлы