Не отступать и не сдаваться / No Retreat, No Surrender (Кори Юэнь / Corey Yuen) [1986, США, Боевик, драма, BDRip 720p] DVO (НТВ+) + 4x AVO + DVO (СТС) + Ukr + Original Eng

Ответить на тему
 
Автор Сообщение

user ®

Стаж: 7 лет 7 месяцев

Сообщений: 20008

Пост Пост: #1 от 13-Авг-2013 22:25

[Цитировать]

Не отступать и не сдаваться / No Retreat, No Surrender
Страна: США
Жанр: Боевик, драма
Год выпуска: 1986
Продолжительность: 01:38:49
Перевод: Профессиональный (двухголосый закадровый) НТВ+
Перевод 2: Авторский (одноголосый закадровый) Мосфильм, С. Мартынов
Перевод 3: Профессиональный (двухголосый закадровый) СТС
Перевод 4: Профессиональный (двухголосый закадровый) 2+2 (Украинский)
Перевод 5: Авторский (одноголосый закадровый) А. Гаврилов
Перевод 6: Авторский (одноголосый закадровый) Ю. Немахов
Перевод 7: Авторский (одноголосый закадровый) П. Санаев
Перевод 8: Авторский (одноголосый закадровый) Ю. Толбин
Cубтитры: нет
Режиссер: Кори Юэнь / Corey Yuen
В ролях: Курт МакКинни, Жан-Клод Ван Дамм, Дж.В. У., Кэти Сайлено, Таи Чунг Ким, Кент Липэм, Рон Понел, Дэйл Джейкоби, Питер Каннингэм, Тимоти Д. Бэйкер, Глория Марзиано, Джо Вэнс, Фарид Панахи, Том Харрис, Джон Эндес, Марк Захаратос, Ти Мартинез, Боб Джонен, Дэннис Парк, Алекс Стельтер, Харольд Энджел, Джерри Коул, Кен Файастоун, Уэйн Йи, Чарли Спаркс, Линетта Уэлш, Кэрин Баджер, Тина Эриксон, Кори Джордан, Нэйл Розбаруч, Джордж Мэйсон, Роберт Виллео, Дэйв Робинсон, Кейт Стрэйндж, Ракинс МакКинли, Роз МакКинли, Джэми Красну, Мишель Красну, Дэннис Кэйси Парк
Описание: Парнишка, изучающий восточные единоборства и мечтающий стать чемпионом, бесстрашно вступает в борьбу с уголовниками и шпаной и зарабатывает сперва лишь синяки и насмешки окружающих. Но в награду за проявленную силу духа, настойчивость и упорную работу на тренировках до седьмого пота, ему начинает покровительствовать и обучать его всем секретам мастерства дух самого Брюса Ли. И, сразившись в большом турнире с грозным русским противником, молодой американский кикбоксер сенсационно, вопреки ожиданиям зрителей и прогнозам специалистов, побеждает.
Сэмпл |
Релиз:
Тип релиза: BDRip 720p
Контейнер: MKV
Видео: MPEG-4 AVC, 8500 Кбит/с, 1280x692, 24.000 кадр/с
Аудио: Russian, 192 Кбит/сек, 48.0 КГц, 2 каналов, 16 бит, AC3 |Профессиональный двухголосый (НТВ+)|
Аудио 2: Russian, 192 Кбит/сек, 48.0 КГц, 2 каналов, 16 бит, AC3 | Профессиональный одноголосый (Мосфильм, С. Мартынов)|
Аудио 3: Russian, 192 Кбит/сек, 48.0 КГц, 2 каналов, 16 бит, AC3 |Профессиональный двухголосый (СТС)|
Аудио 4: Ukrainian, 192 Кбит/сек, 48.0 КГц, 2 каналов, 16 бит, AC3 |Профессиональный двухголосый (2+2)|
Аудио 5: Russian, 192 Кбит/сек, 48.0 КГц, 2 каналов, 16 бит, AC3 |Авторский одноголосый (А. Гаврилов)|
Аудио 6: Russian, 192 Кбит/сек, 48.0 КГц, 2 каналов, 16 бит, AC3 |Авторский одноголосый (Ю. Немахов)|
Аудио 7: Russian, 192 Кбит/сек, 48.0 КГц, 2 каналов, 16 бит, AC3 |Авторский одноголосый (П. Санаев)|
Аудио 8: Russian, 192 Кбит/сек, 48.0 КГц, 2 каналов, 16 бит, AC3 |Авторский одноголосый (Ю. Толбин)|
Аудио 9: English, 192 Кбит/сек, 48.0 КГц, 2 каналов, 16 бит, AC3 |Original|

MediaInfo

Общее
Уникальный идентификатор : 208421109198530585581039587216502425296 (0x9CCC720DE98E002D9A061783BCDA06D0)
Полное имя : C:\фильмы\ЖАН-КЛОД-ВАН ДАММ\Ne.otstupatj.i.ne.sdavatjsya.1986.BDRip.(720p).mkv
Формат : Matroska
Версия формата : Version 2
Размер файла : 7,06 Гбайт
Продолжительность : 1 ч. 38 м.
Общий поток : 10,2 Мбит/сек
Название фильма : -=MediaClub-kaspr=-
Дата кодирования : UTC 2013-08-13 14:08:30
Программа кодирования : mkvmerge v5.7.0 ('The Whirlwind') built on Jul 29 2012 15:12:35
Библиотека кодирования : libebml v1.2.3 + libmatroska v1.3.0
Видео
Идентификатор : 1
Формат : AVC
Формат/Информация : Advanced Video Codec
Профиль формата : High@L4.1
Параметр CABAC формата : Да
Параметр ReFrames формата : 8 кадров
Идентификатор кодека : V_MPEG4/ISO/AVC
Продолжительность : 1 ч. 38 м.
Битрейт : 8500 Кбит/сек
Ширина : 1280 пикселей
Высота : 692 пикселя
Соотношение сторон : 1,85:1
Режим частоты кадров : Постоянный
Частота кадров : 24,000 кадра/сек
Цветовое пространство : YUV
Субдискретизация насыщенности : 4:2:0
Битовая глубина : 8 бит
Тип развёртки : Прогрессивная
Бит/(Пиксели*Кадры) : 0.400
Размер потока : 5,72 Гбайт (81%)
Заголовок : -=MediaClub-kaspr=-
Библиотека кодирования : x264 core 130 r2273 b3065e6
Настройки программы : cabac=1 / ref=8 / deblock=1:-3:-3 / analyse=0x3:0x133 / me=umh / subme=11 / psy=1 / psy_rd=1.00:0.20 / mixed_ref=1 / me_range=32 / chroma_me=1 / trellis=2 / 8x8dct=1 / cqm=0 / deadzone=21,11 / fast_pskip=0 / chroma_qp_offset=-3 / threads=12 / lookahead_threads=2 / sliced_threads=0 / nr=0 / decimate=0 / interlaced=0 / bluray_compat=0 / constrained_intra=0 / bframes=8 / b_pyramid=2 / b_adapt=2 / b_bias=0 / direct=3 / weightb=1 / open_gop=0 / weightp=2 / keyint=240 / keyint_min=23 / scenecut=40 / intra_refresh=0 / rc=2pass / mbtree=0 / bitrate=8500 / ratetol=1.0 / qcomp=0.60 / qpmin=0 / qpmax=69 / qpstep=4 / cplxblur=20.0 / qblur=0.5 / ip_ratio=1.40 / pb_ratio=1.30 / aq=1:1.00
Default : Да
Forced : Да
Аудио #1
Идентификатор : 2
Формат : AC-3
Формат/Информация : Audio Coding 3
Профиль формата : Dolby Digital
Расширение режима : CM (complete main)
Параметр Endianness формата : Big
Идентификатор кодека : A_AC3
Продолжительность : 1 ч. 38 м.
Вид битрейта : Постоянный
Битрейт : 192 Кбит/сек
Каналы : 2 канала
Расположение каналов : Front: L R
Частота : 48,0 КГц
Битовая глубина : 16 бит
Метод сжатия : С потерями
Размер потока : 136 Мбайт (2%)
Заголовок : NTV+
Язык : Russian
Default : Да
Forced : Нет
Аудио #2
Идентификатор : 3
Формат : AC-3
Формат/Информация : Audio Coding 3
Профиль формата : Dolby Digital
Расширение режима : CM (complete main)
Параметр Endianness формата : Big
Идентификатор кодека : A_AC3
Продолжительность : 1 ч. 38 м.
Вид битрейта : Постоянный
Битрейт : 192 Кбит/сек
Каналы : 2 канала
Расположение каналов : Front: L R
Частота : 48,0 КГц
Битовая глубина : 16 бит
Метод сжатия : С потерями
Размер потока : 136 Мбайт (2%)
Заголовок : Мосфильм (С.Мартынов)
Язык : Russian
Default : Нет
Forced : Нет
Аудио #3
Идентификатор : 4
Формат : AC-3
Формат/Информация : Audio Coding 3
Профиль формата : Dolby Digital
Расширение режима : CM (complete main)
Параметр Endianness формата : Big
Идентификатор кодека : A_AC3
Продолжительность : 1 ч. 38 м.
Вид битрейта : Постоянный
Битрейт : 192 Кбит/сек
Каналы : 2 канала
Расположение каналов : Front: L R
Частота : 48,0 КГц
Битовая глубина : 16 бит
Метод сжатия : С потерями
Размер потока : 136 Мбайт (2%)
Заголовок : СТС
Язык : Russian
Default : Нет
Forced : Нет
Аудио #4
Идентификатор : 5
Формат : AC-3
Формат/Информация : Audio Coding 3
Профиль формата : Dolby Digital
Расширение режима : CM (complete main)
Параметр Endianness формата : Big
Идентификатор кодека : A_AC3
Продолжительность : 1 ч. 38 м.
Вид битрейта : Постоянный
Битрейт : 192 Кбит/сек
Каналы : 2 канала
Расположение каналов : Front: L R
Частота : 48,0 КГц
Битовая глубина : 16 бит
Метод сжатия : С потерями
Размер потока : 136 Мбайт (2%)
Заголовок : 2+2
Язык : Ukrainian
Default : Нет
Forced : Нет
Аудио #5
Идентификатор : 6
Формат : AC-3
Формат/Информация : Audio Coding 3
Профиль формата : Dolby Digital
Расширение режима : CM (complete main)
Параметр Endianness формата : Big
Идентификатор кодека : A_AC3
Продолжительность : 1 ч. 38 м.
Вид битрейта : Постоянный
Битрейт : 192 Кбит/сек
Каналы : 2 канала
Расположение каналов : Front: L R
Частота : 48,0 КГц
Битовая глубина : 16 бит
Метод сжатия : С потерями
Размер потока : 136 Мбайт (2%)
Заголовок : А. Гаврилов
Язык : Russian
Default : Нет
Forced : Нет
Аудио #6
Идентификатор : 7
Формат : AC-3
Формат/Информация : Audio Coding 3
Профиль формата : Dolby Digital
Расширение режима : CM (complete main)
Параметр Endianness формата : Big
Идентификатор кодека : A_AC3
Продолжительность : 1 ч. 38 м.
Вид битрейта : Постоянный
Битрейт : 192 Кбит/сек
Каналы : 2 канала
Расположение каналов : Front: L R
Частота : 48,0 КГц
Битовая глубина : 16 бит
Метод сжатия : С потерями
Размер потока : 136 Мбайт (2%)
Заголовок : Ю. Немахов
Язык : Russian
Default : Нет
Forced : Нет
Аудио #7
Идентификатор : 8
Формат : AC-3
Формат/Информация : Audio Coding 3
Профиль формата : Dolby Digital
Расширение режима : CM (complete main)
Параметр Endianness формата : Big
Идентификатор кодека : A_AC3
Продолжительность : 1 ч. 38 м.
Вид битрейта : Постоянный
Битрейт : 192 Кбит/сек
Каналы : 2 канала
Расположение каналов : Front: L R
Частота : 48,0 КГц
Битовая глубина : 16 бит
Метод сжатия : С потерями
Размер потока : 136 Мбайт (2%)
Заголовок : П.Санаев
Язык : Russian
Default : Нет
Forced : Нет
Аудио #8
Идентификатор : 9
Формат : AC-3
Формат/Информация : Audio Coding 3
Профиль формата : Dolby Digital
Расширение режима : CM (complete main)
Параметр Endianness формата : Big
Идентификатор кодека : A_AC3
Продолжительность : 1 ч. 38 м.
Вид битрейта : Постоянный
Битрейт : 192 Кбит/сек
Каналы : 2 канала
Расположение каналов : Front: L R
Частота : 48,0 КГц
Битовая глубина : 16 бит
Метод сжатия : С потерями
Размер потока : 136 Мбайт (2%)
Заголовок : Ю. Толбин
Язык : Russian
Default : Нет
Forced : Нет
Аудио #9
Идентификатор : 10
Формат : AC-3
Формат/Информация : Audio Coding 3
Расширение режима : CM (complete main)
Параметр Endianness формата : Big
Идентификатор кодека : A_AC3
Продолжительность : 1 ч. 38 м.
Вид битрейта : Постоянный
Битрейт : 192 Кбит/сек
Каналы : 2 канала
Расположение каналов : Front: L R
Частота : 48,0 КГц
Битовая глубина : 16 бит
Метод сжатия : С потерями
Размер потока : 136 Мбайт (2%)
Заголовок : Оригинал
Язык : English
Default : Нет
Forced : Нет
Меню
00:00:00.000 : en:Chapter 01
00:07:20.083 : en:Chapter 02
00:14:00.791 : en:Chapter 03
00:21:07.958 : en:Chapter 04
00:27:46.625 : en:Chapter 05
00:38:08.500 : en:Chapter 06
00:48:40.708 : en:Chapter 07
00:57:06.958 : en:Chapter 08
01:06:52.166 : en:Chapter 09
01:15:10.333 : en:Chapter 10
01:21:42.708 : en:Chapter 11
01:27:54.666 : en:Chapter 12
01:36:40.833 : en:Chapter 13

Скриншоты

Скачать

Скачать торрент!

Как скачивать? · Что такое торрент? · Рейтинг и ограничения

Сайт не распространяет и не хранит электронные версии произведений, а лишь предоставляет доступ к создаваемому пользователями каталогу ссылок на торрент-файлы, которые содержат только списки хеш-сумм

[Профиль] [ЛС]
Показать сообщения:    
Ответить на тему

Текущее время: Сегодня 19:26

Часовой пояс: GMT + 4



Вы не можете начинать темы
Вы не можете отвечать на сообщения
Вы не можете редактировать свои сообщения
Вы не можете удалять свои сообщения
Вы не можете голосовать в опросах
Вы не можете прикреплять файлы к сообщениям
Вы не можете скачивать файлы