Семь часов до приговора / Seven Hours to Judgement (Бо Бриджес / Bo Bridges) [1988, США, боевик, криминал, драма, триллер, HDTV 1080i] DVO (НТВ+)

Ответить на тему
 
Автор Сообщение

user ®

Стаж: 7 лет 7 месяцев

Сообщений: 20008

Пост Пост: #1 от 13-Авг-2013 05:15

[Цитировать]

Семь часов до приговора / Seven Hours to Judgement
Страна: США
Студия: Diamant Production, Trans World Entertainment (TWE)
Жанр: боевик, криминал, драма, триллер
Год выпуска: 1988
Продолжительность: 01:26:13
Перевод: Профессиональный (двухголосый закадровый) НТВ+
Cубтитры: нет
Оригинальная аудиодорожка: нет
Режиссер: Бо Бриджес / Bo Bridges
В ролях: Бо Бриджес (Джон Иден), Рон Лейбман (Дэвид Рирдон), Джулианна Филлипс (Лайза Иден)
Описание: Судья Джон Иден в силу отсутствия доказательств отпускает на волю банду жестоких убийц. Дэвид Рирдон, обезумевший вдовец, чья жена стала жертвой этой банды, жаждет расправы с преступниками. Чтобы достичь своей цели и одновременно отомстить судье за его приговор, он похищает его жену и даёт Идену семь часов, чтобы тот проник в самый криминогенный район города и привлёк убийц, скрывающихся там, к ответу.

Тип релиза: HDTV 1080i
Контейнер: TS
Видео: AVC 1920x1080 (16:9) 25.0fps Bit rate 5638Kbps
Аудио: MP2 48.0KHz 2ch 192 Kbps rus

MediaInfo

General
ID : C
Complete name : E:\torrent\Семь часов до приговора.ts
Format : MPEG-TS
File size : 3.69 GiB
Duration : 1h 26mn
Overall bit rate : 6 135 Kbps
Video
ID : 1606 (0x646)
Menu ID : 606 (0x25E)
Format : AVC
Format/Info : Advanced Video Codec
Format profile : High@L4.0
Format settings, CABAC : Yes
Format settings, ReFrames : 3 frames
Format settings, GOP : M=1, N=64
Duration : 1h 26mn
Bit rate : 5 638 Kbps
Width : 1 920 pixels
Height : 1 080 pixels
Display aspect ratio : 16:9
Frame rate : 25.000 fps
Standard : Component
Color space : YUV
Chroma subsampling : 4:2:0
Bit depth : 8 bits
Scan type : Interlaced
Scan order : Top Field First
Bits/(Pixel*Frame) : 0.109
Stream size : 3.40 GiB (92%)
Color primaries : BT.709-5, BT.1361, IEC 61966-2-4, SMPTE RP177
Transfer characteristics : BT.709-5, BT.1361
Matrix coefficients : BT.709-5, BT.1361, IEC 61966-2-4 709, SMPTE RP177
Audio
ID : 2606 (0xA2E)
Menu ID : 606 (0x25E)
Format : MPEG Audio
Format version : Version 1
Format profile : Layer 2
Duration : 1h 26mn
Bit rate mode : Constant
Bit rate : 192 Kbps
Channel(s) : 2 channels
Sampling rate : 48.0 KHz
Video delay : 122ms
Stream size : 118 MiB (3%)
Language : Russian

Скриншот с названием фильма

Скриншоты


Скачать

Скачать торрент!

Как скачивать? · Что такое торрент? · Рейтинг и ограничения

Сайт не распространяет и не хранит электронные версии произведений, а лишь предоставляет доступ к создаваемому пользователями каталогу ссылок на торрент-файлы, которые содержат только списки хеш-сумм

[Профиль] [ЛС]
Показать сообщения:    
Ответить на тему

Текущее время: Сегодня 07:53

Часовой пояс: GMT + 4



Вы не можете начинать темы
Вы не можете отвечать на сообщения
Вы не можете редактировать свои сообщения
Вы не можете удалять свои сообщения
Вы не можете голосовать в опросах
Вы не можете прикреплять файлы к сообщениям
Вы не можете скачивать файлы