Железный телохранитель / The Iron Bodyguard / Iron Body-Guard / The Knight and the Scholar / Da dao Wang Wu (Чжан Чэ / Chang Cheh, Бао Сюэли / Pao Hsueh-Li) [1973, Гонконг, боевые искусства, DVDRip] VO (Jet)

Ответить на тему
 
Автор Сообщение

user ®

Стаж: 11 лет

Сообщений: 15151

Пост Пост: #1 от 12-Авг-2013 20:55

[Цитировать]

Железный телохранитель / The Iron Bodyguard / Iron Body-Guard / The Knight and the Scholar / Da dao Wang Wu
Страна: Гонконг
Жанр: боевые искусства
Год выпуска: 1973
Продолжительность: 01:34:08
Перевод: Одноголосый закадровый Jet
Cубтитры: нет
Режиссер: Чжан Чэ / Chang Cheh, Бао Сюэли / Pao Hsueh-Li
В ролях: Чен Куан-Тай, Юэ Хуа, Дэнни Ли, Лили Ли, Лу Ди, Тун Линь, Цзян Дао, Цзян Нань, Бетти Пэй Ти
Описание: Тань Сы-Тун (1865-1898) - китайский мыслитель, философ, поэт, лидер радикалов реформаторского движения Китая, добровольно принявший мученическую смерть. Фильм "Железный телохранитель" повествует о группе отважных героев во главе со знаменитым фехтовальщиком Ван У, которые предпринимают попытку спасти Тань Сы-Туна в день его казни. (В. Береговых)
Благодарность: За исходник, перевод, озвучивание и описание благодарность выражается Виктору Береговых (Jet).
Доп. информация: Рип с ремастированного DVD.
Сэмпл: http://multi-up.com/893189
Качество видео: DVDRip
Формат видео: AVI
Видео: 688x288 (2.39:1), 23.976 fps, XviD build 50 ~2026 kbps avg, 0.43 bit/pixel
Аудио: 48 kHz, AC3 Dolby Digital, 2/0 (L,R) ch, ~192 kbps

MediaInfo

Format : AVI
Format/Info : Audio Video Interleave
File size : 1,47 Гбайт
Duration : 1 ч. 34 м.
Overall bit rate : 2228 Кбит/сек
Writing application : VirtualDubMod 1.5.10.3 | www.virtualdub-fr.org || (build 2550/release)
Writing library : VirtualDubMod build 2550/release
Видео
ID : 0
Format : MPEG-4 Visual
Format profile : Advanced Simple@L5
Format settings, BVOP : 2
Format settings, QPel : Нет
Format settings, GMC : Без точки перехода
Format settings, Matrix : Default (MPEG)
Codec ID : XVID
Codec ID/Hint : XviD
Duration : 1 ч. 34 м.
Bit rate : 2027 Кбит/сек
Width : 688 пикселей
Height : 288 пикселей
Display aspect ratio : 2,40:1
Frame rate : 23,976 кадра/сек
Color space : YUV
Chroma subsampling : 4:2:0
Bit depth : 8 бит
Scan type : Прогрессивная
Compression mode : С потерями
Bits/(Pixel*Frame) : 0.427
Stream size : 1,33 Гбайт (91%)
Writing library : XviD 1.2.1 (UTC 2008-12-04)
Аудио
ID : 1
Format : AC-3
Format/Info : Audio Coding 3
Mode extension : CM (complete main)
Format settings, Endianness : Big
Codec ID : 2000
Duration : 1 ч. 34 м.
Bit rate mode : Постоянный
Bit rate : 192 Кбит/сек
Channel(s) : 2 канала
Channel positions : Front: L R
Sampling rate : 48,0 КГц
Bit depth : 16 бит
Compression mode : С потерями
Stream size : 129 Мбайт (9%)
Alignment : Разделение по промежуткам
Interleave, duration : 42 мс. (1,00 видеокадр)
Interleave, preload duration : 500 мс.

Скриншот c названием фильма

Скриншоты

Скачать

Скачать торрент! Железный телохранитель / The Iron Bodyguard / Iron Body-Guard / The Knight and the Scholar / Da dao Wang Wu (Чжан Чэ / Chang Cheh, Бао Сюэли / Pao Hsueh-Li) [1973, Гонконг, боевые искусства, DVDRip] VO (Jet)

Как скачивать? · Что такое торрент? · Рейтинг и ограничения

Сайт не распространяет и не хранит электронные версии произведений, а лишь предоставляет доступ к создаваемому пользователями каталогу ссылок на торрент-файлы, которые содержат только списки хеш-сумм

[Профиль] [ЛС]
Показать сообщения:    
Ответить на тему

Текущее время: Сегодня 20:45

Часовой пояс: GMT + 4



Вы не можете начинать темы
Вы не можете отвечать на сообщения
Вы не можете редактировать свои сообщения
Вы не можете удалять свои сообщения
Вы не можете голосовать в опросах
Вы не можете прикреплять файлы к сообщениям
Вы не можете скачивать файлы