Дархэмские быки / Bull Durham (Рон Шелтон / Ron Shelton) [1988, США, мелодрама, комедия, спорт, BDRip 720p] DVO (HТВ+) + AVO (Ю. Сербин) + Sub Eng + Original Eng

Ответить на тему
 
Автор Сообщение

user ®

Стаж: 7 лет 7 месяцев

Сообщений: 20008

Пост Пост: #1 от 12-Авг-2013 20:55

[Цитировать]

Дархэмские быкиBull Durham«A Major League Love Story in a Minor League Town»- Страна: США
Студия: The Mount Company
Жанр: мелодрама, комедия, спорт
Год выпуска: 1988
Продолжительность: 01:48:01
Перевод 1: Профессиональный (двухголосый закадровый) HТВ+
Перевод 2: Авторский (одноголосый закадровый) Ю. Сербин
Cубтитры: английские
Оригинальная аудиодорожка: английский
Режиссер: Рон Шелтон / Ron Shelton
В ролях: Кевин Костнер (Crash Davis), Сьюзен Сарандон (Annie Savoy), Тим Роббинс (Ebby Calvin «Nuke» LaLoosh), Трей Уилсон (Skip), Роберт Вул (Larry), Уильям О’Лири (Jimmy), Дэвид Найдорф (Bobby), Дэнни Гэнс (Deke), Том Силарди (Tony), Ллойд Т. Уильямс (Mickey), Рик Марзан (Jose), Джордж Бак (Nuke's Father)
Описание: Тренер бейсбольной команды «Дархемские Быки» приглашает Крэша Дэйвиса, опытного игрока, на роль наставника для молодого, но талантливого Эбби, которому не хватает практики, чтобы стать настоящей звездой. Фанатка команды, имеющая привычку крутить романы с игроками, пытается «зацепить» и Дэйвиса, но тот оказывается неприступным.
Но это не останавливает Энни, и она укладывает в постель подопечного Крэша. В результате получается классический любовный треугольник со всеми вытекающими последствиями и интригами. Прекрасное трио популярных актеров порадует зрителей своей игрой в этой романтической комедии.

MPAA: R - Лицам до 17 лет обязательно присутствие взрослого

Тип релиза: BDRip 720p
Контейнер: MKV
Видео: AVC, 1280x694 (16:9), 7352 kbps, 23,976 fps, 0,345 bpp
Аудио №1: русский / AC3 / 2.0 / 48 kHz / 192 kbps / 16 bit |Профессиональный (двухголосый закадровый) HТВ+|
Аудио №2: русский / AC3 / 2.0 / 48 kHz / 192 kbps / 16 bit |Авторский (одноголосый закадровый) Ю. Сербин|
Аудио №3: английский / DTS / 5.1 / 48 kHz / 1509 kbps / 24 bit
Навигация по главам: есть
Формат субтитров: softsub (SRT)

MediaInfo

General
Unique ID                                : 196472708869295849532762971918440719707 (0x93CF446F8488D06E9344AC9717B1E55B)
Complete name                            : E:\Torrent\Bull.Durham.1988.720p_Bluray.2xRus.Eng.HDCLUB.mkv
Format                                   : Matroska
Format version                           : Version 4 / Version 2
File size                                : 7.12 GiB
Duration                                 : 1h 48mn
Overall bit rate                         : 9 434 Kbps
Encoded date                             : UTC 2013-08-12 10:50:34
Writing application                      : mkvmerge v6.3.0 ('You can't stop me!') built on Jun 28 2013 20:09:41
Writing library                          : libebml v1.3.0 + libmatroska v1.4.0
Video
ID                                       : 1
Format                                   : AVC
Format/Info                              : Advanced Video Codec
Format profile                           : High@L4.1
Format settings, CABAC                   : Yes
Format settings, ReFrames                : 12 frames
Codec ID                                 : V_MPEG4/ISO/AVC
Duration                                 : 1h 48mn
Bit rate                                 : 7 353 Kbps
Width                                    : 1 280 pixels
Height                                   : 694 pixels
Display aspect ratio                     : 16:9
Frame rate                               : 23.976 fps
Color space                              : YUV
Chroma subsampling                       : 4:2:0
Bit depth                                : 8 bits
Scan type                                : Progressive
Bits/(Pixel*Frame)                       : 0.345
Stream size                              : 5.55 GiB (78%)
Writing library                          : x264 core 135 r2345kMod f0c1c53
Encoding settings                        : cabac=1 / ref=12 / deblock=1:-3:-3 / analyse=0x3:0x113 / me=umh / subme=11 / psy=1 / fade_compensate=0.00 / psy_rd=1.20:0.05 / mixed_ref=1 / me_range=48 / chroma_me=1 / trellis=2 / 8x8dct=1 / cqm=0 / deadzone=21,11 / fast_pskip=0 / chroma_qp_offset=-3 / threads=6 / lookahead_threads=1 / sliced_threads=0 / nr=0 / decimate=1 / interlaced=0 / bluray_compat=0 / constrained_intra=0 / bframes=12 / b_pyramid=2 / b_adapt=2 / b_bias=0 / direct=3 / weightb=1 / open_gop=0 / weightp=2 / keyint=250 / keyint_min=23 / scenecut=40 / intra_refresh=0 / rc_lookahead=40 / rc=crf / mbtree=0 / crf=18.7500 / qcomp=0.75 / qpmin=0 / qpmax=69 / qpstep=4 / vbv_maxrate=62500 / vbv_bufsize=78125 / crf_max=0.0 / nal_hrd=none / ip_ratio=1.40 / pb_ratio=1.30 / aq=1:0.80
Language                                 : English
Default                                  : Yes
Forced                                   : No
Color primaries                          : BT.709-5, BT.1361, IEC 61966-2-4, SMPTE RP177
Transfer characteristics                 : BT.709-5, BT.1361
Matrix coefficients                      : BT.709-5, BT.1361, IEC 61966-2-4 709, SMPTE RP177
Audio #1
ID                                       : 2
Format                                   : AC-3
Format/Info                              : Audio Coding 3
Mode extension                           : CM (complete main)
Codec ID                                 : A_AC3
Duration                                 : 1h 48mn
Bit rate mode                            : Constant
Bit rate                                 : 192 Kbps
Channel(s)                               : 2 channels
Channel positions                        : Front: L R
Sampling rate                            : 48.0 KHz
Bit depth                                : 16 bits
Compression mode                         : Lossy
Stream size                              : 148 MiB (2%)
Title                                    : Двухголосый закадровый, НТВ+
Language                                 : Russian
Default                                  : Yes
Forced                                   : No
Audio #2
ID                                       : 3
Format                                   : AC-3
Format/Info                              : Audio Coding 3
Mode extension                           : CM (complete main)
Codec ID                                 : A_AC3
Duration                                 : 1h 48mn
Bit rate mode                            : Constant
Bit rate                                 : 192 Kbps
Channel(s)                               : 2 channels
Channel positions                        : Front: L R
Sampling rate                            : 48.0 KHz
Bit depth                                : 16 bits
Compression mode                         : Lossy
Stream size                              : 148 MiB (2%)
Title                                    : Одноголосый закадровый, Ю. Сербин
Language                                 : Russian
Default                                  : No
Forced                                   : No
Audio #3
ID                                       : 4
Format                                   : DTS
Format/Info                              : Digital Theater Systems
Codec ID                                 : A_DTS
Duration                                 : 1h 48mn
Bit rate mode                            : Constant
Bit rate                                 : 1 509 Kbps
Channel(s)                               : 6 channels
Channel positions                        : Front: L C R, Side: L R, LFE
Sampling rate                            : 48.0 KHz
Bit depth                                : 24 bits
Compression mode                         : Lossy
Stream size                              : 1.14 GiB (16%)
Language                                 : English
Default                                  : No
Forced                                   : No
Text
ID                                       : 5
Format                                   : UTF-8
Codec ID                                 : S_TEXT/UTF8
Codec ID/Info                            : UTF-8 Plain Text
Language                                 : English
Default                                  : No
Forced                                   : No
Menu
00:00:00.000                             : en:00:00:00.000
00:04:19.424                             : en:00:04:19.424
00:08:53.657                             : en:00:08:53.657
00:12:09.145                             : en:00:12:09.145
00:17:10.195                             : en:00:17:10.195
00:21:05.263                             : en:00:21:05.263
00:24:33.722                             : en:00:24:33.722
00:26:19.494                             : en:00:26:19.494
00:30:14.854                             : en:00:30:14.854
00:33:42.770                             : en:00:33:42.770
00:39:47.718                             : en:00:39:47.718
00:42:25.583                             : en:00:42:25.583
00:46:32.789                             : en:00:46:32.789
00:48:27.821                             : en:00:48:27.821
00:52:36.862                             : en:00:52:36.862
00:55:56.143                             : en:00:55:56.143
01:03:21.546                             : en:01:03:21.546
01:07:20.453                             : en:01:07:20.453
01:10:15.002                             : en:01:10:15.002
01:13:06.506                             : en:01:13:06.506
01:17:36.943                             : en:01:17:36.943
01:22:18.808                             : en:01:22:18.808
01:26:12.834                             : en:01:26:12.834
01:28:48.865                             : en:01:28:48.865
01:31:20.349                             : en:01:31:20.349
01:37:53.576                             : en:01:37:53.576
01:41:36.090                             : en:01:41:36.090
01:44:13.287                             : en:01:44:13.287

Скриншоты

Encode vs Source



Скачать

Скачать торрент!

Как скачивать? · Что такое торрент? · Рейтинг и ограничения

Сайт не распространяет и не хранит электронные версии произведений, а лишь предоставляет доступ к создаваемому пользователями каталогу ссылок на торрент-файлы, которые содержат только списки хеш-сумм

[Профиль] [ЛС]
Показать сообщения:    
Ответить на тему

Текущее время: Сегодня 09:55

Часовой пояс: GMT + 4



Вы не можете начинать темы
Вы не можете отвечать на сообщения
Вы не можете редактировать свои сообщения
Вы не можете удалять свои сообщения
Вы не можете голосовать в опросах
Вы не можете прикреплять файлы к сообщениям
Вы не можете скачивать файлы