Ох уж эта наука! / Weird Science (Джон Хьюз / John Hughes) [1985, США, фэнтези, мелодрама, комедия, WEB-DL 720p] AVO (Гаврилов) + AVO (диктор CDV) + Dub + 2x MVO + Sub Eng + Original Eng

Ответить на тему
 
Автор Сообщение

user ®

Стаж: 7 лет 7 месяцев

Сообщений: 20008

Пост Пост: #1 от 12-Авг-2013 14:45

[Цитировать]

Ох уж эта наука! / Weird Science
Страна: США
Студия: Universal Pictures
Жанр: фэнтези, мелодрама, комедия
Год выпуска: 1985
Продолжительность: 01:33:37
Перевод 1: Авторский (одноголосый закадровый) Андрей Гаврилов
Перевод 2: Авторский (одноголосый закадровый) - диктор CDV
Перевод 3: Профессиональный (многоголосый закадровый) - НТВ+
Перевод 4: Профессиональный (дублированный) - «Шестой канал» по заказу СТС
Перевод 5: Профессиональный (многоголосый закадровый) - R5 Universal
Cубтитры: английские
Оригинальная аудиодорожка: английский
Режиссер: Джон Хьюз / John Hughes
В ролях: Энтони Майкл Холл /Anthony Michael Hall/, Келли Ле Брок /Kelly Le Brock/, Илэн Митчелл-Смит /Ilan Mitchell-Smith/, Билл Пэкстон /Bill Paxton/, Сюзанн Снайдер /Sozanne Snyder/, Роберт Дауни-младший /Robert Downey, Jr./
Описание: Двое скромных умников из старших классов создали женщину при помощи каких-то фантастических компьютеров. Это они сделать смогли, но на практике... ноль. И вот, устав от вечной безнадежности , мечтающие о потери девственности Гэри и Уайэтт, ничего поделать не могут. Это длилось до тех пор, пока они в полном отчаяния не создали ответ на свой запросы - прекрасную и очень доступную Лизу (Келли Ле Брок). Беда в том, что использовать они ее практически не могли. (Иванов М.)
Альтернативное описание: Исходный замысел вроде бы смешон: два неопытных, сексуально одержимых подростка Гэрри и Уайэт, посмотрев по телевизору знаменитый фильм «Франкенштейн», вдохновились идеей создания при помощи персонального компьютера идеальной женщины, способной удовлетворить все желания. Ради достижения этой цели они заложили в компьютерную программу завлекательные обложки журналов «Плейбой» и «Пентхаус», а ещё… фотографию Альберта Эйнштейна (видимо, для вящей научности эксперимента) — на выходе же смогли получить прекрасную девушку Лизу. Но вот дальнейшее развитие сюжета куда проще и неинтереснее данного курьёза.
Американский сценарист и режиссёр Джон Хьюз специализировался в 80-е годы на подростковых комедиях, поскольку хорошо знал школьный жаргон и реалии жизни тинэйджеров. Правда, ему порой изменял вкус — и картины поневоле кажутся пошловатыми. Автор всё-таки спекулировал на неприхотливых интересах и потребностях молодёжной аудитории. «Ох, уж эта наука!» не является исключением и подтверждает мнение американских критиков о том, что по комедиям Хьюза или по циклу «Полицейская академия» можно судить о вкусах тогдашних зрителей. Впрочем, спустя десятилетия предпочтения юной публики стали только хуже
--------------------------------------------------
Оператор: Мэттью Леонетти /Matthew Leonetti/
Сценарист: Джон Хьюз /John Hughes/
Продюсер: Джоэл Силвер /Joel Silver/
Монтажер: Марк Уорнер /Mark Warner/, Кристофер Лебензон /Christopher Lebenzon/, Скотт Уоллес /Scott Wallace/
Композитор: Айра Ньюборн /Ira Newborn/
Художник: Джон У. Корсо /John W. Corso/
--------------------------------------------------
КИНОПОИСК. RU
РЕЙТИНГ 6.896 оценки: 2626
6,4/10 from 39 887 users
--------------------------------------------------
Доп. информация: Видеоряд от protoyu, Звук с этой раздачи [url=http://***/forum/viewtopic.php?t=4348102]DVDRip[/url],
---------------------
СЭМПЛ
--------------------
Тип релиза: WEB-DL 720p
Контейнер: MKV
Видео: 1280x692; 23.976 fps; ~ 3 990 Kbps; 0.188 Bits/Pixel
Аудио 1: Russian - 48 kHz, AC3, Front: L C R, Side: L R, LFE, ~ 448 kbps - Андрей Гаврилов
Аудио 2: Russian - 48 kHz, AC3, 2/0 Front: L R, ~ 192 kbps - диктор CDV
Аудио 3: Russian - 48 kHz, AC3, 2/0 Front: L R, ~ 192 kbps - MVO НТВ+
Аудио 4: Russian - 48 kHz, AC3, 2/0 Front: L R, ~ 192 kbps - DUB
Аудио 5: Russian - 48 kHz, AC3, Front: L C R, Side: L R, LFE, ~ 448 kbps - MVO R5
Аудио 6: English - 48 kHz, AC3, Front: L C R, Side: L R, LFE, ~ 448 kbps - Original
Формат субтитров: UTF-8

MediaInfo

General
Complete name : F:\EXCLUZIVE=19\ОХ УЖ ЭТА НАУКА=WEIRD SCIENCE-1985\Weird Science.1985\Weird.Science.1985.720p.WEB-DL.mkv
Format : Matroska
File size : 3.94 GiB
Duration : 1h 33mn
Overall bit rate : 6 030 Kbps
Movie name : Weird Science (1985) - Release for HDCLUB
Encoded date : UTC 2013-08-12 01:13:51
Writing application : mkvmerge v3.3.0 ('Language') built on Mar 24 2010 14:59:24
Writing library : libebml v0.8.0 + libmatroska v0.9.0
Video
ID : 1
Format : AVC
Format/Info : Advanced Video Codec
Format profile : High@L3.1
Format settings, CABAC : No
Format settings, ReFrames : 2 frames
Muxing mode : Container profile=Unknown@3.1
Codec ID : V_MPEG4/ISO/AVC
Duration : 1h 33mn
Bit rate : 3 990 Kbps
Width : 1 280 pixels
Height : 692 pixels
Display aspect ratio : 1.850
Frame rate : 23.976 fps
Color space : YUV
Chroma subsampling : 4:2:0
Bit depth : 8 bits
Scan type : Progressive
Bits/(Pixel*Frame) : 0.188
Stream size : 2.61 GiB (66%)
Title : Weird Science (1985)
Language : English
Color primaries : BT.709-5, BT.1361, IEC 61966-2-4, SMPTE RP177
Transfer characteristics : BT.709-5, BT.1361
Matrix coefficients : BT.709-5, BT.1361, IEC 61966-2-4 709, SMPTE RP177
Audio #1
ID : 2
Format : AC-3
Format/Info : Audio Coding 3
Mode extension : CM (complete main)
Codec ID : A_AC3
Duration : 1h 33mn
Bit rate mode : Constant
Bit rate : 448 Kbps
Channel(s) : 6 channels
Channel positions : Front: L C R, Side: L R, LFE
Sampling rate : 48.0 KHz
Stream size : 300 MiB (7%)
Title : AVO-Гаврилов @ AC3 448 rbps
Language : Russian
Audio #2
ID : 3
Format : AC-3
Format/Info : Audio Coding 3
Mode extension : CM (complete main)
Codec ID : A_AC3
Duration : 1h 33mn
Bit rate mode : Constant
Bit rate : 192 Kbps
Channel(s) : 2 channels
Channel positions : Front: L R
Sampling rate : 48.0 KHz
Stream size : 129 MiB (3%)
Title : AVO-CDV @ AC3 192 kbps
Language : Russian
Audio #3
ID : 4
Format : AC-3
Format/Info : Audio Coding 3
Mode extension : CM (complete main)
Codec ID : A_AC3
Duration : 1h 33mn
Bit rate mode : Constant
Bit rate : 192 Kbps
Channel(s) : 2 channels
Channel positions : Front: L R
Sampling rate : 48.0 KHz
Stream size : 129 MiB (3%)
Title : MVO-NTV @ AC3 192 kbps
Language : Russian
Audio #4
ID : 5
Format : AC-3
Format/Info : Audio Coding 3
Mode extension : CM (complete main)
Codec ID : A_AC3
Duration : 1h 33mn
Bit rate mode : Constant
Bit rate : 192 Kbps
Channel(s) : 2 channels
Channel positions : Front: L R
Sampling rate : 48.0 KHz
Stream size : 129 MiB (3%)
Title : DUB @ AC3 192 kbps
Language : Russian
Audio #5
ID : 6
Format : AC-3
Format/Info : Audio Coding 3
Mode extension : CM (complete main)
Codec ID : A_AC3
Duration : 1h 33mn
Bit rate mode : Constant
Bit rate : 448 Kbps
Channel(s) : 6 channels
Channel positions : Front: L C R, Side: L R, LFE
Sampling rate : 48.0 KHz
Stream size : 300 MiB (7%)
Title : MVO-R5 @ AC3 448 kbps
Language : Russian
Audio #6
ID : 7
Format : AC-3
Format/Info : Audio Coding 3
Mode extension : CM (complete main)
Codec ID : A_AC3
Duration : 1h 33mn
Bit rate mode : Constant
Bit rate : 448 Kbps
Channel(s) : 6 channels
Channel positions : Front: L C R, Side: L R, LFE
Sampling rate : 48.0 KHz
Stream size : 300 MiB (7%)
Title : Oruginal @ AC3 448 kbps
Language : English
Text
ID : 8
Format : UTF-8
Codec ID : S_TEXT/UTF8
Codec ID/Info : UTF-8 Plain Text
Language : English
Menu
00:00:00.000 : en:1. Women Everywhere
00:02:26.000 : en:2. Main Titles
00:03:42.000 : en:3. To Simulate a Girl
00:10:33.000 : en:4. Cyber Babe
00:14:20.000 : en:5. On the Town
00:22:28.000 : en:6. One Serious Idiot
00:27:17.000 : en:7. The Morning After
00:30:57.000 : en:8. At the Mall
00:36:41.000 : en:9. Gentle Persuasion
00:42:57.000 : en:10. Party!
00:50:29.000 : en:11. Scientific Breakthrough
01:00:22.000 : en:12. Uninvited Guests
01:09:53.000 : en:13. In the Mood
01:12:39.000 : en:14. Here Comes Chet
01:18:26.000 : en:15. Land Speed Record
01:22:13.000 : en:16. Chet Happens
01:25:10.000 : en:17. Nick of Time
01:29:56.000 : en:18. End Titles

Скриншоты

, ,
. ,
, ,
Скачать

Скачать торрент!

Как скачивать? · Что такое торрент? · Рейтинг и ограничения

Сайт не распространяет и не хранит электронные версии произведений, а лишь предоставляет доступ к создаваемому пользователями каталогу ссылок на торрент-файлы, которые содержат только списки хеш-сумм

[Профиль] [ЛС]
Показать сообщения:    
Ответить на тему

Текущее время: Сегодня 08:36

Часовой пояс: GMT + 4



Вы не можете начинать темы
Вы не можете отвечать на сообщения
Вы не можете редактировать свои сообщения
Вы не можете удалять свои сообщения
Вы не можете голосовать в опросах
Вы не можете прикреплять файлы к сообщениям
Вы не можете скачивать файлы