Убежище / Hideaway (Бретт Леонард / Brett Leonard) [1995, США, фантастика, ужасы, триллер, HDTV 1080i] MVO (ТВ3) + MVO + Original (Eng) + Sub (Eng)

Ответить на тему
 
Автор Сообщение

user ®

Стаж: 7 лет 7 месяцев

Сообщений: 20008

Пост Пост: #1 от 12-Авг-2013 02:40

[Цитировать]

Убежище / Hideaway
Год выпуска: 1995
Страна: США
Жанр: фантастика, ужасы, триллер
Продолжительность: 01:41:35
Перевод1: Профессиональный (многоголосый, закадровый)("ТВ3")
Перевод2: Профессиональный (многоголосый, закадровый)
Субтитры: английские
Оригинальная аудиодорожка: английский
Режиссер: Бретт Леонард / Brett Leonard
В ролях: Джефф Голдблюм, Кристина Лахти, Алисия Силверстоун, Джереми Систо, Альфред Молина, Рэй Доун Чонг, Кеннет Уэлш, Сьюзи Йоахим, Ширли Бродерик, Том МакБет, Джоэли Коллинз, Роджер Р. Кросс, Майкл Джеймс МакДональд, Дон С. Дэвис, Ребекка Тулан, Хиро Канагава, Джейми Нокс, Норма Жан Уик, Тиффани Фостер, Мара Дуронслет, Айрис Куинн, Наташа Морли, Сара Стрэйндж.
Описание: Антиквар Хэтч Харрисон вместе с женой и дочерью попадает в страшную автомобильную аварию. Жена и дочь остаются живы. Два часа врачи отчаянно борятся за Хэтча и доктор Надбер возвращает его к жизни через 20 минут после клинической смерти. Но после выздоровления с Харрисоном начинает происходить что-то странное: его преследуют галлюцинации - видения изощренных убийств, жертвой одного из которых должна стать его дочь Реджина. Сообщения о пропавших девушках появляются в газетах, но тел не находят. Пытаясь предотвратить смерть Реджины, Хэтч сталкивается с потусторонними силами, властно вторгающимися в реальную жизнь через дверь, приоткрытую доктором Надбером, сын которого покончил собой, принеся себя в жертву Сатане
Дополнительная информация:
Релиз доступен благодаря проекту [url=http://***/forum/viewtopic.php?t=4307106]GORESEWAGE[/url]!
Подогнанные без перекодировки русские дороги взяты [url=http://***/forum/viewtopic.php?t=3527786]отсюда[/url], автору большое спасибо!

Качество: HDTV 1080i
Формат: MKV
Видео кодек: H.264
Аудио кодек: AC3
Видео: 1920 x 1080; 25 fps; 8023 Kbps
Аудио1: Русский, AC3 2.0 192 Kbps 48,0 КГц(MVO TV3)
Аудио2: Русский, AC3 2.0 192 Kbps 48,0 КГц(MVO)
Аудио3: English, AC3 5.1 384 Kbps 48,0 КГц(Оригинал)
Субтитры: softsub (SRT)

MediaInfo

D:\HDFILMS\Hideaway.1995.HDTV.1080i.2xRus.Eng.mkv
General
Unique ID : 214590090080228828139000811647946602748 (0xA1708C4B64F511D9AA9D252AD85638FC)
Complete name : D:\HDFILMS\Hideaway.1995.HDTV.1080i.2xRus.Eng.mkv
Format : Matroska
File size : 6.37 GiB
Duration : 1h 41mn
Overall bit rate : 8 969 Kbps
Movie name : Hideaway
Encoded date : UTC 2013-08-11 14:56:51
Writing application : mkvmerge v6.2.0 ('Promised Land') built on Apr 28 2013 12:22:01
Writing library : libebml v1.3.0 + libmatroska v1.4.0
Video #1
ID : 1
Format : AVC
Format/Info : Advanced Video Codec
Format profile : Main@L4.0
Format settings, CABAC : Yes
Format settings, ReFrames : 4 frames
Format settings, GOP : M=1, N=64
Codec ID : V_MPEG4/ISO/AVC
Duration : 1h 41mn
Bit rate mode : Variable
Bit rate : 8 023 Kbps
Maximum bit rate : 20.0 Mbps
Width : 1 920 pixels
Height : 1 080 pixels
Display aspect ratio : 16:9
Frame rate : 50.000 fps
Original frame rate : 25.000 fps
Color space : YUV
Chroma subsampling : 4:2:0
Bit depth : 8 bits
Scan type : Interlaced
Scan order : Top Field First
Bits/(Pixel*Frame) : 0.077
Stream size : 5.69 GiB (89%)
Title : Hideaway
Color primaries : BT.709-5, BT.1361, IEC 61966-2-4, SMPTE RP177
Transfer characteristics : BT.709-5, BT.1361
Matrix coefficients : BT.709-5, BT.1361, IEC 61966-2-4 709, SMPTE RP177
Audio #2
ID : 2
Format : AC-3
Format/Info : Audio Coding 3
Mode extension : CM (complete main)
Codec ID : A_AC3
Duration : 1h 41mn
Bit rate mode : Constant
Bit rate : 192 Kbps
Channel(s) : 2 channels
Channel positions : Front: L R
Sampling rate : 48.0 KHz
Bit depth : 16 bits
Compression mode : Lossy
Stream size : 140 MiB (2%)
Title : MVO TV3 AC3 192 kbps
Language : Russian
Audio #3
ID : 3
Format : AC-3
Format/Info : Audio Coding 3
Mode extension : CM (complete main)
Codec ID : A_AC3
Duration : 1h 41mn
Bit rate mode : Constant
Bit rate : 192 Kbps
Channel(s) : 2 channels
Channel positions : Front: L R
Sampling rate : 48.0 KHz
Bit depth : 16 bits
Compression mode : Lossy
Stream size : 140 MiB (2%)
Title : MVO AC3 2.0 192 kbps
Language : Russian
Audio #4
ID : 4
Format : AC-3
Format/Info : Audio Coding 3
Mode extension : CM (complete main)
Codec ID : A_AC3
Duration : 1h 41mn
Bit rate mode : Constant
Bit rate : 384 Kbps
Channel(s) : 6 channels
Channel positions : Front: L C R, Side: L R, LFE
Sampling rate : 48.0 KHz
Bit depth : 16 bits
Compression mode : Lossy
Stream size : 279 MiB (4%)
Title : Original AC3 5.1 384 kbps
Language : English
Text #5
ID : 5
Format : UTF-8
Codec ID : S_TEXT/UTF8
Codec ID/Info : UTF-8 Plain Text
Language : English

Скриншоты

Скачать

Скачать торрент!

Как скачивать? · Что такое торрент? · Рейтинг и ограничения

Сайт не распространяет и не хранит электронные версии произведений, а лишь предоставляет доступ к создаваемому пользователями каталогу ссылок на торрент-файлы, которые содержат только списки хеш-сумм

[Профиль] [ЛС]
Показать сообщения:    
Ответить на тему

Текущее время: Сегодня 23:19

Часовой пояс: GMT + 4



Вы не можете начинать темы
Вы не можете отвечать на сообщения
Вы не можете редактировать свои сообщения
Вы не можете удалять свои сообщения
Вы не можете голосовать в опросах
Вы не можете прикреплять файлы к сообщениям
Вы не можете скачивать файлы