Разрешите тебя поцеловать... снова (Юрий Морозов) [2012, мелодрама, комедия, DVDRip]

Ответить на тему
 
Автор Сообщение

user ®

Стаж: 7 лет 7 месяцев

Сообщений: 20008

Пост Пост: #1 от 12-Авг-2013 02:40

[Цитировать]

Разрешите тебя поцеловать... снова
Жанр: мелодрама, комедия
Год выпуска: 2012
Продолжительность: 01:45:36
Режиссёр: Юрий Морозов
В ролях:
Игорь Лифанов, Мария Куликова, Борис Щербаков, Виолетта Вакорина, Александр Ратников, Аполлинария Муравьёва, Алёна Корнева, Ирина Егорова, Константин Ужва, Ксения Баскакова, Анастасия Красильникова, Анна Ещенко, Наталья Колдашова, Юрий Морозов
Описание:
Мы встречаемся с героями через три года, в новогоднюю ночь. Именно тогда разжалованный в майоры Григорий Власов намеревается сделать, наконец, предложение руки и сердца своей подруге Наталье. Но в самый ответственный момент звонит генерал и сообщает Власову две хорошие новости: ему возвращено звание подполковника, и его ждёт новый ответственный пост в Подмосковье. Власов в срочном порядке вылетает в Москву, так и не сделав предложения Наталье. А на месте выясняется, что командовать ему снова придётся молодыми строптивыми женщинами, да ещё и из непростых семей...
Доп. информация:

Качество видео: DVDRip
Формат видео: AVI
Видео: 656x368 (1.78:1), 25 fps, XviD build 65 ~848 kbps avg, 0.14 bit/pixel
Аудио: 48 kHz, MPEG Layer 3, 2 ch, ~128.00 kbps avg
Семпл

MediaInfo

Общее
Полное имя : D:\Torrent\Разрешите тебя поцеловать... снова\Разрешите... снова_745\Разрешите... снова_745.avi
Формат : AVI
Формат/Информация : Audio Video Interleave
Размер файла : 745 Мбайт
Продолжительность : 1 ч. 45 м.
Общий поток : 987 Кбит/сек
Программа кодирования : VirtualDubMod 1.5.10.3 | www.virtualdub-fr.org || (build 2550/release)
Библиотека кодирования : VirtualDubMod build 2550/release
Видео
Идентификатор : 0
Формат : MPEG-4 Visual
Профиль формата : Advanced Simple@L5
Параметр BVOP формата : 1
Параметр QPel формата : Нет
Параметр GMC формата : Без точки перехода
Параметр матрицы формата : Выборочная
Идентификатор кодека : XVID
Идентификатор кодека/Подсказка : XviD
Продолжительность : 1 ч. 45 м.
Битрейт : 849 Кбит/сек
Ширина : 656 пикселей
Высота : 368 пикселей
Соотношение сторон : 16:9
Частота кадров : 25,000 кадров/сек
Цветовое пространство : YUV
Субдискретизация насыщенности : 4:2:0
Битовая глубина : 8 бит
Тип развёртки : Прогрессивная
Метод сжатия : С потерями
Бит/(Пиксели*Кадры) : 0.141
Размер потока : 641 Мбайт (86%)
Библиотека кодирования : XviD 65
Аудио
Идентификатор : 1
Формат : MPEG Audio
Версия формата : Version 1
Профиль формата : Layer 3
Идентификатор кодека : 55
Идентификатор кодека/Подсказка : MP3
Продолжительность : 1 ч. 45 м.
Вид битрейта : Постоянный
Битрейт : 128 Кбит/сек
Каналы : 2 канала
Частота : 48,0 КГц
Метод сжатия : С потерями
Размер потока : 96,7 Мбайт (13%)
Выравнивание : Соединение по промежуткам
Продолжительность промежутка : 40 мс. (1,00 видеокадр)
Время предзагрузки промежутка : 504 мс.
Библиотека кодирования : LAME3.99
Настройки программы : -m s -V 4 -q 0 -lowpass 17 -b 128

Скриншот c названием фильма

Скриншоты

Скачать

Скачать торрент!

Как скачивать? · Что такое торрент? · Рейтинг и ограничения

Сайт не распространяет и не хранит электронные версии произведений, а лишь предоставляет доступ к создаваемому пользователями каталогу ссылок на торрент-файлы, которые содержат только списки хеш-сумм

[Профиль] [ЛС]
Показать сообщения:    
Ответить на тему

Текущее время: Сегодня 20:39

Часовой пояс: GMT + 4



Вы не можете начинать темы
Вы не можете отвечать на сообщения
Вы не можете редактировать свои сообщения
Вы не можете удалять свои сообщения
Вы не можете голосовать в опросах
Вы не можете прикреплять файлы к сообщениям
Вы не можете скачивать файлы