Боба и слон (Август Балтрушайтис) [1972, детский, семейный, DVB]

Ответить на тему
 
Автор Сообщение

user ®

Стаж: 7 лет 7 месяцев

Сообщений: 20008

Пост Пост: #1 от 11-Авг-2013 22:20

[Цитировать]

Боба и слон
Жанр: детский, семейный
Год выпуска: 1972
Продолжительность: 01:03:36
Режиссёры: Август Балтрушайтис
В ролях: Денис Кучер, Арина Аракелова, Гелий Сысоев, Ирина Куберская, Георгий Штиль, Юрий Соловьев, Борис Аракелов, Елена Андерегг, Владимир Костин, Александр Липовр
Описание: Однажды слон — гордость зоопарка — покидает свой вольер и отправляется гулять по городу. Все попытки служителей вернуть его обратно — безуспешны. И только пятилетнему мальчику удается наладить контакт с гигантским животным ...
Доп. информация:

Трансляция спутникового канала "Карусель".
Семпл: http://multi-up.com/893058
Качество видео: DVB
Формат видео: MPEG-PS
Видео: MPEG2 Video, 720x576 (4:3), 25 fps, 3500 kbps
Аудио: MPEG Audio (Version 1) Layer 2, 2 сh, 48 kHz, 192 kbps

MediaInfo

D:\Боба и слон. (1972)_DVB by SLuMeP.mpg
General
Complete name : D:\Боба и слон. (1972)_DVB by SLuMeP.mpg
Format : MPEG-PS
File size : 1.67 GiB
Duration : 1h 3mn
Overall bit rate mode : Variable
Overall bit rate : 3 764 Kbps
Video #224
ID : 224 (0xE0)
Format : MPEG Video
Format version : Version 2
Format profile : Main@Main
Format settings, BVOP : Yes
Format settings, Matrix : Custom
Duration : 1h 3mn
Bit rate mode : Variable
Bit rate : 3 497 Kbps
Maximum bit rate : 5 000 Kbps
Width : 720 pixels
Height : 576 pixels
Display aspect ratio : 4:3
Frame rate : 25.000 fps
Standard : PAL
Color space : YUV
Chroma subsampling : 4:2:0
Bit depth : 8 bits
Scan type : Interlaced
Scan order : Top Field First
Compression mode : Lossy
Bits/(Pixel*Frame) : 0.337
Stream size : 1.55 GiB (93%)
Audio #192
ID : 192 (0xC0)
Format : MPEG Audio
Format version : Version 1
Format profile : Layer 2
Duration : 1h 3mn
Bit rate mode : Constant
Bit rate : 192 Kbps
Channel(s) : 2 channels
Sampling rate : 48.0 KHz
Compression mode : Lossy
Stream size : 87.4 MiB (5%)

Скриншоты

Скачать

Скачать торрент!

Как скачивать? · Что такое торрент? · Рейтинг и ограничения

Сайт не распространяет и не хранит электронные версии произведений, а лишь предоставляет доступ к создаваемому пользователями каталогу ссылок на торрент-файлы, которые содержат только списки хеш-сумм

[Профиль] [ЛС]
Показать сообщения:    
Ответить на тему

Текущее время: Сегодня 16:25

Часовой пояс: GMT + 4



Вы не можете начинать темы
Вы не можете отвечать на сообщения
Вы не можете редактировать свои сообщения
Вы не можете удалять свои сообщения
Вы не можете голосовать в опросах
Вы не можете прикреплять файлы к сообщениям
Вы не можете скачивать файлы